Поиск

2021 Ben Goldberg - Everything Happens To Be. {BAG Production} [24-96]

2021 Ben Goldberg - Everything Happens To Be. {BAG Production} [24-96]
Место записи:
Firehouse 12 Studio, New Haven
Дата издания диска:
17 июня 2021
Носитель:
WEB
Формат:
PCM
Тип рипа:
tracks
Контейнер:
FLAC (*.flac)
Количество каналов:
2.0
Разрядность/ЧД:
24/96
Битрейт аудио:
lossless
Время звучания:
00:57:49
Наличие сканов:
только обложка

Треклист:

01. What About   05:41
02. 21   06:14
03. Fred Hampton   04:48
04. Everything Happens To Be.   07:04
05. Cold Weather   06:23
06. Chorale Type   09:53
07. Tomas Plays the Drums   05:51
08. Long Last Moment   05:10
09. To-Ron-To   05:32
10. Abide With Me   01:10

Состав:
  • Mary Halvorson — electric guitar
  • Ellery Eskelin — tenor saxophone
  • Michael Formanek — bass
  • Tomas Fujiwara — drums
  • Ben Goldberg — clarinets
  • Nick Lloyd — engineer
  • Mixed January 2021 by Michael Coleman
Лог проверки качества
foobar2000 1.4.2 / Dynamic Range Meter 1.1.1
log date: 2021-07-01 08:40:12

--------------------------------------------------------------------------------
Analyzed: Ben Goldberg / Everything Happens To Be.
--------------------------------------------------------------------------------

DR         Peak         RMS     Duration Track
--------------------------------------------------------------------------------
DR7       -0.50 dB   -10.21 dB      1:10 01-Abide With Me
DR5       -0.50 dB    -7.62 dB      5:32 02-To-Ron-To
DR6       -0.50 dB    -9.75 dB      5:11 03-Long Last Moment
DR5       -0.50 dB    -8.32 dB      5:51 04-Tomas Plays the Drums
DR6       -0.50 dB    -9.08 dB      9:53 05-Chorale Type
DR5       -0.50 dB    -8.63 dB      6:23 06-Cold Weather
DR7       -0.50 dB    -9.25 dB      7:05 07-Everything Happens To Be.
DR7       -0.50 dB   -10.69 dB      4:48 08-Fred Hampton
DR7       -0.50 dB    -9.94 dB      6:14 09-21
DR7       -0.50 dB   -10.36 dB      5:42 10-What About
--------------------------------------------------------------------------------

Number of tracks:  10
Official DR value: DR6

Samplerate:        96000 Hz
Channels:          2
Bits per sample:   24
Bitrate:           2536 kbps
Codec:             FLAC
================================================================================
По всем вопросам пишите личное сообщение пользователю M0p94ok.
22:14
244
Нет комментариев. Ваш будет первым!