Вы используете незарегистрированную версию компонента "Вкладки"!

Поиск

2021 John Stein - Serendipity {Whaling City Sound} [24-44.1]

2021 John Stein - Serendipity {Whaling City Sound} [24-44.1]
Дата издания диска:
18 июня 2021
Издатель (лейбл):
Номер по каталогу:
WCS 129
Носитель:
WEB
Формат:
PCM
Тип рипа:
tracks
Контейнер:
FLAC (*.flac)
Количество каналов:
2.0
Разрядность/ЧД:
24/44,1
Битрейт аудио:
lossless
Время звучания:
00:53:15
Наличие сканов:
только обложка
Лог проверки качества
foobar2000 1.4.2 / Dynamic Range Meter 1.1.1
log date: 2021-07-01 08:41:09

--------------------------------------------------------------------------------
Analyzed: John Stein / Serendipity
--------------------------------------------------------------------------------

DR         Peak         RMS     Duration Track
--------------------------------------------------------------------------------
DR15      -0.40 dB   -16.81 dB      5:33 01-Happy Hour
DR14      -0.30 dB   -16.05 dB      5:43 02-East of the Sun and West of the Moon
DR15      -0.60 dB   -16.39 dB      5:41 03-The Night Has a Thousand Eyes
DR13      -0.30 dB   -15.80 dB      5:26 04-Elvin!
DR13      -0.20 dB   -14.32 dB      6:24 05-Bing Bang Boom!
DR11      -0.20 dB   -13.55 dB      6:17 06-Insensatez (How Insensitive)
DR13      -0.30 dB   -15.10 dB      4:51 07-Labor of Love
DR12      -0.30 dB   -13.78 dB      3:59 08-Well, You Needn’t
DR12      -0.30 dB   -13.20 dB      5:03 09-On Green Dolphin Street
DR12      -0.30 dB   -13.89 dB      4:17 10-Alfie’s Theme
--------------------------------------------------------------------------------

Number of tracks:  10
Official DR value: DR13

Samplerate:        44100 Hz
Channels:          2
Bits per sample:   24
Bitrate:           1531 kbps
Codec:             FLAC
================================================================================
Any questions - support@pro-jazz.com. Есть вопросы - support@pro-jazz.com
16:30
81
Нет комментариев. Ваш будет первым!