Поиск

2018 Matthew Lux's Communication Arts Quartet - Contra / Fact {Astral Spirits} [24-44.1]

2018 Matthew Lux's Communication Arts Quartet - Contra / Fact {Astral Spirits} [24-44.1]
Место записи:
Electrical Audio, Chicago, Illinois, USA
Дата издания диска:
22 июня 2018
Носитель:
WEB
Формат:
PCM
Тип рипа:
tracks
Контейнер:
FLAC (*.flac)
Количество каналов:
2.0
Разрядность/ЧД:
24/44,1
Битрейт аудио:
lossless
Время звучания:
00:39:34
Наличие сканов:
только обложка
Страна-производитель диска (релиза):
USA

Треклист:

1. Camisa Sete   03:20
2. Ninna Nanna   06:00
3. Mercury Lights   04:27
4. Singlet   00:50
5. Paw Paw   04:54
6. Israels'   08:14
7. C.G.L.W   09:48
8. Gris/Bleu   01:58

Состав:
  • MIKEL PATRICK AVERY — drums, percussion, acoustic guitar, mellotron
  • BEN LAMAR GAY — cornet, electronics, melodica, percussion
  • JAYVE MONTGOMERY — tenor sax, carinumpet, flute, samples, percussion
  • MATTHEW LUX — bass, synth, electric guitar, chirimia, percussion
  • Recording and Mixing by GREG NORMAN
  • Mixed at MINBAL
  • Edit for LP by LEROY BACH
  • Mastered for Vinyl by ALAN JONES at LAMINAL AUDIO
Лог проверки качества
foobar2000 1.6.2 / Dynamic Range Meter 1.1.1
log date: 2021-07-02 11:46:37

--------------------------------------------------------------------------------
Analyzed: Matthew Lux's Communication Arts Quartet / Contra/Fact
--------------------------------------------------------------------------------

DR         Peak         RMS     Duration Track
--------------------------------------------------------------------------------
DR9       -1.66 dB   -12.77 dB      3:20 01-Camisa Sete
DR8       -1.74 dB   -13.38 dB      6:00 02-Ninna Nanna
DR12      -1.75 dB   -17.31 dB      4:27 03-Mercury Lights
DR10      -2.35 dB   -15.47 dB      0:51 04-Singlet
DR8       -1.05 dB   -11.00 dB      4:54 05-Paw Paw
DR8       -1.50 dB   -11.54 dB      8:15 06-Israels'
DR8       -1.72 dB   -12.10 dB      9:48 07-C.G.L.W
DR9       -1.76 dB   -14.05 dB      1:59 08-Gris/Bleu
--------------------------------------------------------------------------------

Number of tracks:  8
Official DR value: DR9

Samplerate:        44100 Hz
Channels:          2
Bits per sample:   24
Bitrate:           1095 kbps
Codec:             FLAC
================================================================================
По всем вопросам пишите личное сообщение пользователю M0p94ok.
18:57
246
Нет комментариев. Ваш будет первым!