Поиск

2016 One For All - No Problem {Venus} [DSD64 ISO]

2016 One For All - No Problem {Venus} [DSD64 ISO]
Стили:
Дата записи диска:
11 апреля 2003
Место записи:
Avatar Studios, New York City, NY, USA
Издатель (лейбл):
Номер по каталогу:
VHGD-136
Носитель:
SACD
Формат:
DSD
Тип рипа:
image
Контейнер:
ISO (*.iso)
Количество каналов:
2.0
Разрядность/ЧД:
64 (2,8 MHz/1 Bit)
Битрейт аудио:
lossless
Время звучания:
01:02:51
Наличие сканов:
только обложка

Треклист:

1. Our Father Who Art Blaky  08:18
2. No Problem  08:23
3. Moanin'  08:31
4. Whisper Not  07:53
5. Ugetsu  06:15
6. Time Off  07:43
7. Prelude to a Kiss  07:51
8. One for All  08:28

Состав:
  • Eric Alexander    Sax (Tenor)
  • Jim Anderson    Engineer
  • Todd Barkan    Producer
  • Steve Davis    Composer, Trombone
  • Ray Drummond    Bass
  • Joe Farnsworth    Composer, Drums
  • Tetsuo Hara    Mastering, Mixing, Producer
  • David Hazeltine    Piano
  • Shuji Kitamura    Mastering, Mixing
  • Jim Rotondi    Trumpet
Лог проверки качества
foobar2000 1.6.4 / Dynamic Range Meter 1.1.1
log date: 2021-07-02 16:20:00

--------------------------------------------------------------------------------
Analyzed: ONE FOR ALL / No Problem
--------------------------------------------------------------------------------

DR         Peak         RMS     Duration Track
--------------------------------------------------------------------------------
DR6       -4.40 dB   -12.09 dB      8:13 01-Our Father Who Art Blaky
DR5       -4.25 dB   -11.38 dB      8:19 02-No Problem
DR6       -4.23 dB   -12.41 dB      8:27 03-Moanin'
DR6       -4.74 dB   -12.79 dB      7:48 04-Whisper Not
DR6       -4.52 dB   -12.00 dB      6:10 05-Ugetsu
DR6       -4.28 dB   -11.80 dB      7:38 06-Time Off
DR7       -5.03 dB   -14.75 dB      7:46 07-Prelude To A Kiss
DR6       -4.32 dB   -11.55 dB      8:28 08-One For All
--------------------------------------------------------------------------------

Number of tracks:  8
Official DR value: DR6

Samplerate:        2822400 Hz / PCM Samplerate: 88200 Hz
Channels:          2
Bits per sample:   1
Bitrate:           5645 kbps
Codec:             DSD64
================================================================================
По всем вопросам пишите личное сообщение пользователю M0p94ok.
00:13
279
Нет комментариев. Ваш будет первым!