Вы используете незарегистрированную версию компонента "Вкладки"!

Поиск

2019 Jan Akkerman - Close Beauty {Music Theories} [24-44,1]

2019 Jan Akkerman - Close Beauty {Music Theories} [24-44,1]
Стили:
Дата издания диска:
25 октября 2019
Битрейт аудио:
lossless
Доп. инфо:

Формат / Источник записи: [TR24][OF]
Наличие водяных знаков: Нет
Год издания: 2019-10-25
Издатель-лейбл: Music Theories
Продолжительность: 01:04:55
Наличие сканов: Нет
Контейнер: FLAC (*.flac)
Тип рипа: tracks
Разрядность: 24/44,1
Формат: PCM
Количество каналов: 2.0
Источник: интернет

Лог проверки качества
foobar2000 1.4.6 / Замер динамического диапазона (DR) 1.1.1
Дата отчёта:  2019-10-23 13:56:35

--------------------------------------------------------------------------------
Анализ:   Jan Akkerman / Close Beauty
--------------------------------------------------------------------------------

DR         Пики         RMS           Продолжительность трека
--------------------------------------------------------------------------------
DR9       -0.02 дБ   -10.74 дБ      7:03 01-Spiritual Privacy
DR8       -0.14 дБ   -10.06 дБ      7:07 02-Beyond The Horizon
DR8       -0.25 дБ   -10.24 дБ      4:40 03-Reunion
DR9       -0.60 дБ   -11.02 дБ      3:01 04-Close Beauty
DR10      -0.04 дБ   -12.78 дБ      6:14 05-Retrospection (Emotional Debris-The Power Behind The Throne-Hear The Trees Whistle For The Dog-Euridice)
DR11      -0.10 дБ   -13.01 дБ      2:57 06-Passagaglia
DR8       -0.24 дБ    -9.98 дБ      8:18 07-Tommy's Anniversary
DR8       -0.26 дБ    -9.50 дБ      4:06 08-Don Giovanni
DR8       -0.37 дБ   -10.13 дБ      4:52 09-Meanwhile in St. Tropez
DR11      -0.25 дБ   -13.00 дБ      3:00 10-French Pride
DR9       -0.68 дБ   -10.98 дБ      5:21 11-Fromage
DR8       -0.05 дБ    -9.52 дБ      8:16 12-Good Body Every Evening
--------------------------------------------------------------------------------

Количество треков: 12
Реальные значения DR: DR9

Частота:   44100 Гц
Каналов:   2
Разрядность:   24
Битрейт:   1589 кбит/с
Кодек:   FLAC
================================================================================
Any questions - support@pro-jazz.com. Есть вопросы - support@pro-jazz.com
00:21
232
Нет комментариев. Ваш будет первым!