Поиск

2020 Anne Paceo - Sama {Laborie Jazz} [24-48]

2020 Anne Paceo - Sama {Laborie Jazz} [24-48]
Стили:
Битрейт аудио:
lossless
Доп. инфо:

Формат записи/Источник записи: [TR24][OF]
Наличие водяных знаков: Нет
Год издания/переиздания диска: 2020
Издатель (лейбл): Laborie Jazz
Продолжительность: 00:28:16
Наличие сканов в содержимом раздачи: Только обложка альбома

Контейнер: FLAC (*.flac)
Тип рипа: tracks
Разрядность: 24/48
Формат: PCM
Количество каналов: 2.0

Источник (релизер): redacted <-- qobuz

Лог проверки качества
foobar2000 1.6.1 / Dynamic Range Meter 1.1.1
log date: 2020-10-28 23:04:23

--------------------------------------------------------------------------------
Analyzed: Anne Paceo / Sama
--------------------------------------------------------------------------------

DR         Peak         RMS     Duration Track
--------------------------------------------------------------------------------
DR8       -0.01 dB    -9.58 dB      4:33 01-Sama
DR8       -0.02 dB   -11.18 dB      4:31 02-Les Chateaux de Sable
DR7       -0.01 dB    -9.29 dB      6:31 03-Le Cri
DR8       -0.01 dB   -10.53 dB      5:37 04-Tomorrow
DR9       -0.01 dB   -11.40 dB      7:04 05-The Shell
--------------------------------------------------------------------------------

Number of tracks:  5
Official DR value: DR8

Samplerate:        48000 Hz
Channels:          2
Bits per sample:   24
Bitrate:           1613 kbps
Codec:             FLAC
================================================================================
No seeders - write personal message to M0p94ok. Any questions - support@pro-jazz.com.
Нет сидеров - пишите в личку M0p94ok. Есть вопросы - support@pro-jazz.com
22:28
593
Нет комментариев. Ваш будет первым!