Поиск

2020 Ivan Kapec 5tet - Crta {Nota Bene} [24-96]

2020 Ivan Kapec 5tet - Crta {Nota Bene} [24-96]
Стили:
Битрейт аудио:
lossless
Доп. инфо:

Формат записи/Источник записи: [TR24][OF]
Год издания/переиздания диска: 2020
Продолжительность: 00:46:11
Наличие сканов в содержимом раздачи: Нет

Контейнер: FLAC (*.flac)
Тип рипа: tracks
Разрядность: 24/96
Количество каналов: 2.0

Источник (релизер): PROSTUDIOMASTERS

Лог проверки качества
foobar2000 1.4.3 / Dynamic Range Meter 1.1.1
log date: 2020-10-27 22:19:46

--------------------------------------------------------------------------------
Analyzed: Ivan Kapec 5tet / Ivan Kapec 5tet: Crta
--------------------------------------------------------------------------------

DR         Peak         RMS     Duration Track
--------------------------------------------------------------------------------
DR8       -0.31 dB   -10.65 dB      5:28 01-Zoka
DR8       -0.31 dB   -10.45 dB      4:50 02-Vibar Colores
DR8       -0.31 dB   -11.69 dB      5:39 03-Neo
DR10      -0.31 dB   -12.74 dB      5:42 04-South, South
DR9       -0.31 dB   -12.87 dB      5:48 05-In processu
DR9       -0.31 dB   -12.34 dB      4:19 06-U daljini
DR9       -0.31 dB   -12.15 dB      8:07 07-Quattro per due
DR8       -0.30 dB   -11.76 dB      6:23 08-Pesnata
--------------------------------------------------------------------------------

Number of tracks:  8
Official DR value: DR8

Samplerate:        96000 Hz
Channels:          2
Bits per sample:   24
Bitrate:           2458 kbps
Codec:             FLAC
================================================================================
No seeders - write personal message to M0p94ok. Any questions - support@pro-jazz.com.
Нет сидеров - пишите в личку M0p94ok. Есть вопросы - support@pro-jazz.com
21:45
261
Нет комментариев. Ваш будет первым!