Поиск

2005 Michel Camilo - Rhapsody in Blue {Telarc} [DST64]

2005 Michel Camilo - Rhapsody in Blue {Telarc} [DST64]
Место записи:
L'Auditori, Barcelona, Spain
Издатель (лейбл):
Битрейт аудио:
lossless
Треклист:

1. Rhapsody In Blue (16:46)
2. Concerto in F - Allegro (13:13)
3. Concerto in F - Adagio - Andante Con Moto (12:59)
4. Concerto in F - Allegro Agitato (6:32)
5. Prelude no 2 (6:38)

Доп. инфо:

Формат записи/Источник записи: [SACD-R][OF]
Наличие водяных знаков: Нет
Год издания/переиздания диска: 2005
Издатель (лейбл): Telarc
Продолжительность: 00:55:51, 00:55:50
Наличие сканов в содержимом раздачи: Только обложка альбома

Контейнер: ISO (*.iso)
Тип рипа: image
Разрядность: 64(2,8 MHz/1 Bit)
Формат: DST64
Количество каналов: 5.1, 2.0

Лог проверки качества
foobar2000 1.4.6 / Замер динамического диапазона (DR) 1.1.1
Дата отчёта:  2019-09-17 18:16:47

--------------------------------------------------------------------------------
Анализ:   Michel Camilo / Rhapsody in Blue
--------------------------------------------------------------------------------

DR         Пики         RMS           Продолжительность трека
--------------------------------------------------------------------------------
DR16      -7.34 дБ   -32.42 дБ     16:39 01-Rhapsody in Blue
DR19      -3.72 дБ   -31.78 дБ     13:10 02-Concerto in F: I. Allegro
DR20      -4.88 дБ   -37.69 дБ     12:56 03-Concerto in F: II. Adagio-Andante con moto
DR17      -3.56 дБ   -31.48 дБ      6:28 04-Concerto in F: III. Allegro agitato
DR14     -19.50 дБ   -44.51 дБ      6:37 05-Prelude No. 2
--------------------------------------------------------------------------------

Количество треков: 5
Реальные значения DR: DR17

Частота:   2822400 Гц / Частота PCM: 88200 Гц
Каналов:   6
Разрядность:   1
Битрейт:   16934 кбит/с
Кодек:   DST64
================================================================================

--------------------------------------------------------------------------------
Анализ:   Michel Camilo / Rhapsody in Blue
--------------------------------------------------------------------------------

DR         Пики         RMS           Продолжительность трека
--------------------------------------------------------------------------------
DR16      -5.62 дБ   -27.31 дБ     16:39 01-Rhapsody in Blue
DR17      -3.63 дБ   -27.06 дБ     13:10 02-Concerto in F: I. Allegro
DR19      -4.13 дБ   -33.18 дБ     12:56 03-Concerto in F: II. Adagio-Andante con moto
DR16      -3.56 дБ   -27.08 дБ      6:28 04-Concerto in F: III. Allegro agitato
DR15     -18.03 дБ   -39.11 дБ      6:36 05-Prelude No. 2
--------------------------------------------------------------------------------

Количество треков: 5
Реальные значения DR: DR17

Частота:   2822400 Гц / Частота PCM: 88200 Гц
Каналов:   2
Разрядность:   1
Битрейт:   5645 кбит/с
Кодек:   DST64
================================================================================
Приватный:
Нет (DHT включён)
Размер:
3.29 Гб (3,533,366,450 байт) » файлов: 4
Участники:
0 раздают, 0 качают (0 участников всего)
Внешние участники:
5 раздают, 1 качают (6 участников всего) [ Обновить ]
No seeders - write personal message to M0p94ok. Нет сидеров - пишите в личку M0p94ok.
20:56
173
Нет комментариев. Ваш будет первым!