Поиск

2001 Christy Baron - Steppin' {Chesky} [DST64]

2001 Christy Baron - Steppin' {Chesky} [DST64]
Стили:
Дата записи диска:
28 февраля - 2 марта 2000
Место записи:
St. Peter's Episcopal Church in New York City, NY, USA
Дата издания диска:
27 июня 2000
Издатель (лейбл):
Битрейт аудио:
lossless
Доп. инфо:

Формат записи/Источник записи: [SACD-R][OF]
Наличие водяных знаков: Нет
Год издания/переиздания диска: 2000/2001
Продолжительность: 00:52:46
Наличие сканов в содержимом раздачи: Буклет PDF

Контейнер: ISO (*.iso)
Тип рипа: image
Разрядность: 64(2,8 MHz/1 Bit)
Формат: DST64
Количество каналов: 5.0 (4.0), 2.0

Лог проверки качества
foobar2000 1.4.6 / Замер динамического диапазона (DR) 1.1.1
Дата отчёта:  2019-09-17 17:38:52

--------------------------------------------------------------------------------
Анализ:   Christy Baron / Steppin'
--------------------------------------------------------------------------------

DR         Пики         RMS           Продолжительность трека
--------------------------------------------------------------------------------
DR9       -6.28 дБ   -23.79 дБ      3:54 01-Will It Go 'Round in Circles
DR10      -6.20 дБ   -25.57 дБ      5:40 02-Mercy Street
DR9       -6.08 дБ   -23.90 дБ      7:05 03-Tomorrow Never Knows
DR10      -6.19 дБ   -24.66 дБ      3:36 04-Thieves in the Temple
DR10      -6.18 дБ   -26.81 дБ      4:14 05-This Must Be Love
DR11      -6.56 дБ   -25.96 дБ      6:28 06-Delays on the Downtown 6
DR9       -6.14 дБ   -24.09 дБ      3:37 07-She's Not There
DR10      -7.63 дБ   -30.02 дБ      4:07 08-The Shadow of Your Smile
DR10      -7.97 дБ   -26.64 дБ      1:23 09-Is Love Enough
DR11      -6.05 дБ   -27.56 дБ      3:12 10-Ain't No Half Steppin'
DR10      -8.83 дБ   -27.26 дБ      3:16 11-Spooky
DR10      -5.95 дБ   -26.38 дБ      6:15 12-Nite and Day
--------------------------------------------------------------------------------

Количество треков: 12
Реальные значения DR: DR10

Частота:   2822400 Гц / Частота PCM: 88200 Гц
Каналов:   5
Разрядность:   1
Битрейт:   14112 кбит/с
Кодек:   DST64
================================================================================

--------------------------------------------------------------------------------
Анализ:   Christy Baron / Steppin'
--------------------------------------------------------------------------------

DR         Пики         RMS           Продолжительность трека
--------------------------------------------------------------------------------
DR12      -6.28 дБ   -20.70 дБ      3:54 01-Will It Go 'Round in Circles
DR12      -6.20 дБ   -22.33 дБ      5:40 02-Mercy Street
DR12      -6.08 дБ   -20.66 дБ      7:05 03-Tomorrow Never Knows
DR12      -6.19 дБ   -21.43 дБ      3:36 04-Thieves in the Temple
DR13      -6.18 дБ   -23.66 дБ      4:14 05-This Must Be Love
DR13      -6.56 дБ   -22.55 дБ      6:28 06-Delays on the Downtown 6
DR12      -6.14 дБ   -20.65 дБ      3:37 07-She's Not There
DR13      -7.63 дБ   -26.80 дБ      4:07 08-The Shadow of Your Smile
DR12      -7.97 дБ   -23.41 дБ      1:23 09-Is Love Enough
DR14      -6.05 дБ   -24.27 дБ      3:12 10-Ain't No Half Steppin'
DR13      -8.83 дБ   -24.33 дБ      3:16 11-Spooky
DR13      -5.95 дБ   -22.85 дБ      6:15 12-Nite and Day
--------------------------------------------------------------------------------

Количество треков: 12
Реальные значения DR: DR13

Частота:   2822400 Гц / Частота PCM: 88200 Гц
Каналов:   2
Разрядность:   1
Битрейт:   5645 кбит/с
Кодек:   DST64
================================================================================
No seeders - write personal message to M0p94ok. Any questions - support@pro-jazz.com.
Нет сидеров - пишите в личку M0p94ok. Есть вопросы - support@pro-jazz.com
17:37
376
Нет комментариев. Ваш будет первым!