Поиск

2001 Lee Konitz - Parallels {Chesky SACD240} [DST64]

2001 Lee Konitz - Parallels {Chesky SACD240} [DST64]
Стили:
Дата записи диска:
5 декабря - 7 декабря 2000
Место записи:
St. Peter's Church, Chelsea, New York City, NY, USA
Дата издания диска:
22 мая 2001
Издатель (лейбл):
Номер по каталогу:
SACD240
Битрейт аудио:
lossless

Треклист:

1. How Deep Is the Ocean  08:06
2. For Hans  06:14
3. Skylark  07:20
4. Lt  07:39
5. 317 East 32nd  08:32
6. Palo Alto  08:02
7. Eyes  06:19
8. Subconscious Lee  06:16

Доп. инфо:

Формат записи/Источник записи: [SACD-R][OF]
Наличие водяных знаков: Нет
Год издания/переиздания диска: 2001/2002
Продолжительность: 00:58:28
Наличие сканов в содержимом раздачи: Да (сканы)

Контейнер: ISO (*.iso)
Тип рипа: image
Разрядность: 64(2,8 MHz/1 Bit)
Формат: DST64
Количество каналов: 5.0 (4.0), 2.0

Лог проверки качества
foobar2000 1.4.6 / Замер динамического диапазона (DR) 1.1.1
Дата отчёта:  2019-10-31 15:36:48

--------------------------------------------------------------------------------
Анализ:   Lee Konitz / Parallels
--------------------------------------------------------------------------------

DR         Пики         RMS           Продолжительность трека
--------------------------------------------------------------------------------
DR11      -6.34 дБ   -26.90 дБ      8:06 01-How Deep Is The Ocean
DR11      -6.09 дБ   -26.89 дБ      6:14 02-For Hans
DR11      -6.50 дБ   -27.39 дБ      7:20 03-Skylark
DR11      -6.42 дБ   -27.02 дБ      7:39 04-LT
DR11      -6.22 дБ   -24.91 дБ      8:32 05-317 East 32nd
DR11      -6.24 дБ   -26.31 дБ      8:02 06-Palo Alto
DR10      -6.22 дБ   -25.82 дБ      6:20 07-Eyes
DR10      -6.12 дБ   -25.90 дБ      6:16 08-Subconscious Lee
--------------------------------------------------------------------------------

Количество треков: 8
Реальные значения DR: DR11

Частота:   2822400 Гц / Частота PCM: 88200 Гц
Каналов:   5
Разрядность:   1
Битрейт:   14112 кбит/с
Кодек:   DST64
================================================================================

--------------------------------------------------------------------------------
Анализ:   Lee Konitz / Parallels
--------------------------------------------------------------------------------

DR         Пики         RMS           Продолжительность трека
--------------------------------------------------------------------------------
DR14      -6.34 дБ   -23.36 дБ      8:06 01-How Deep Is The Ocean
DR14      -6.09 дБ   -23.36 дБ      6:14 02-For Hans
DR14      -6.50 дБ   -23.85 дБ      7:20 03-Skylark
DR13      -6.42 дБ   -23.49 дБ      7:39 04-LT
DR13      -6.22 дБ   -21.48 дБ      8:32 05-317 East 32nd
DR14      -6.24 дБ   -22.84 дБ      8:02 06-Palo Alto
DR13      -6.22 дБ   -22.36 дБ      6:20 07-Eyes
DR13      -6.12 дБ   -22.48 дБ      6:16 08-Subconscious Lee
--------------------------------------------------------------------------------

Количество треков: 8
Реальные значения DR: DR13

Частота:   2822400 Гц / Частота PCM: 88200 Гц
Каналов:   2
Разрядность:   1
Битрейт:   5645 кбит/с
Кодек:   DST64
================================================================================
Приватный:
Нет (DHT включён)
Размер:
3.20 Гб (3,434,083,087 байт) » файлов: 7
Участники:
9 раздают, 1 качают (10 участников всего)
Внешние участники:
8 раздают, 2 качают (10 участников всего) [ Обновить ]
Скорость:
1.53 Мб/c 0/c
No seeders - write personal message to M0p94ok. Any questions - support@pro-jazz.com.
Нет сидеров - пишите в личку M0p94ok. Есть вопросы - support@pro-jazz.com
21:24
291
Нет комментариев. Ваш будет первым!