Поиск

2017 Borderlands Trio - Asteroidea {Intakt} [24-96]

2017 Borderlands Trio - Asteroidea {Intakt} [24-96]
Стили:
Дата записи диска:
18 декабря 2016
Место записи:
The Samurai Hotel, Queens, New York City, NY, USA
Дата издания диска:
1 сентября 2017
Издатель (лейбл):
Номер по каталогу:
Intakt 295
Носитель:
WEB
Формат:
PCM
Тип рипа:
tracks+.cue
Контейнер:
APE (*.ape)
Количество каналов:
2.0
Битрейт аудио:
lossless
Время звучания:
00:52:43
Наличие сканов:
web
Наличие водяных знаков:
нет
Страна-производитель диска (релиза):
Switzerland
Релизёр (источник):
M0p94ok

Треклист:

1 Borderlands 26:32
2 Carnavall Hill 2:06
3 Flockwork 7:52
4 Ochre 3:40
5 Body Waves 6:31
6 From Polliwogs 5:59

Лог проверки качества
foobar2000 1.3.16 / Dynamic Range Meter 1.1.1
log date: 2019-04-02 00:50:06

--------------------------------------------------------------------------------
Analyzed: Borderlands Trio / Asteroidea
--------------------------------------------------------------------------------

DR         Peak         RMS     Duration Track
--------------------------------------------------------------------------------
DR12      -0.02 dB   -16.75 dB     26:32 01-Borderlands
DR11      -0.02 dB   -13.58 dB      2:06 02-Carnaval Hill
DR12      -0.02 dB   -15.83 dB      7:52 03-Flockwork
DR16      -3.08 dB   -26.64 dB      3:41 04-Ochre
DR11      -0.02 dB   -14.49 dB      6:32 05-Body Waves
DR14      -0.03 dB   -17.80 dB      6:00 06-From Polliwogs
--------------------------------------------------------------------------------

Number of tracks:  6
Official DR value: DR13

Samplerate:        96000 Hz
Channels:          2
Bits per sample:   24
Bitrate:           2561 kbps
Codec:             FLAC
================================================================================
Приватный:
Нет (DHT включён)
Размер:
970.49 Мб (1,017,632,839 байт) » файлов: 8
Участники:
1 раздают, 0 качают (1 участников всего)
Внешние участники:
--- [ Обновить ]
No seeders - write personal message to M0p94ok. Нет сидеров - пишите в личку M0p94ok.
21:47
153
Нет комментариев. Ваш будет первым!