Поиск

2018 VWCR - Noise of Our Time {Intakt} [24-96]

2018 VWCR - Noise of Our Time {Intakt} [24-96]
Дата записи диска:
17 августа 2017
Место записи:
Oktaven Audio, Mount Vernon, New York, USA
Дата издания диска:
21 сентября 2018
Издатель (лейбл):
Номер по каталогу:
310
Носитель:
WEB
Формат:
PCM
Тип рипа:
tracks+.cue
Контейнер:
APE (*.ape)
Количество каналов:
2.0
Разрядность/ЧД:
24/96
Битрейт аудио:
lossless
Время звучания:
00:44:11
Наличие сканов:
web
Страна-производитель диска (релиза):
USA
Релизёр (источник):
M0p94ok
Лог проверки качества
foobar2000 1.6.2 / Dynamic Range Meter 1.1.1
log date: 2020-12-11 18:30:43

--------------------------------------------------------------------------------
Analyzed: VWCR / Noise of Our Time
--------------------------------------------------------------------------------

DR         Peak         RMS     Duration Track
--------------------------------------------------------------------------------
DR11      -0.95 dB   -14.61 dB      5:04 01-Checkpoint
DR15      -0.95 dB   -18.64 dB      6:40 02-Track and Field
DR11      -0.95 dB   -14.89 dB      3:44 03-Sparks
DR14      -0.95 dB   -20.44 dB      6:12 04-The Space Between the Teeth
DR11      -0.95 dB   -13.82 dB      4:32 05-Tag
DR8       -0.95 dB   -12.16 dB      4:18 06-Songs of Innocence
DR11      -0.95 dB   -15.85 dB      4:00 07-VWCR
DR10      -0.95 dB   -13.95 dB      4:04 08-Truth through Mass Individuation
DR16      -0.95 dB   -20.29 dB      5:42 09-Simple Cut
--------------------------------------------------------------------------------

Number of tracks:  9
Official DR value: DR12

Samplerate:        96000 Hz
Channels:          2
Bits per sample:   24
Bitrate:           2439 kbps
Codec:             FLAC
================================================================================
No seeders - write personal message to M0p94ok. Any questions - support@pro-jazz.com.
Нет сидеров - пишите в личку M0p94ok. Есть вопросы - support@pro-jazz.com
19:45
249
Нет комментариев. Ваш будет первым!