Поиск

2007 Grace Mahya - Last Live at DUG {Village Music} [DST64]

2007 Grace Mahya - Last Live at DUG {Village Music} [DST64]
Стили:
Место записи:
DUG, Tokyo, Japan
Дата издания диска:
28 февраля 2007
Номер по каталогу:
VRCL-11004
Битрейт аудио:
lossless
Треклист:

01    Route 66    7:56
02    Moonlight in Vermont    4:37
03    Bei Mir Bist Du Schön    6:26
04    Kiss of Life    6:30
05    Mona Lisa    4:25
06    Comin' Home Baby    7:11
07    My Heart Belongs to Daddy    3:54
08    Teach Me Tonight    4:18
09    Sunny    8:33
10    The Way We Were    6:20

Доп. инфо:

Формат записи/Источник записи: [SACD-R][OF]
Наличие водяных знаков: Нет
Год издания/переиздания диска: 2007
Издатель (лейбл): Village Music Inc.
Продолжительность: 01:00:16
Наличие сканов в содержимом раздачи: Да (сканы)

Контейнер: ISO (*.iso)
Тип рипа: image
Разрядность: 64(2,8 MHz/1 Bit)
Формат: DST64
Количество каналов: 5.1, 2.0

Источник (релизер): http://www.cdjapan.co.jp/product/VRCL-11004

Лог проверки качества
foobar2000 1.4.6 / Замер динамического диапазона (DR) 1.1.1
Дата отчёта:  2019-11-01 13:55:45

--------------------------------------------------------------------------------
Анализ:   Grace Mahya / Last Live at DUG
--------------------------------------------------------------------------------

DR         Пики         RMS           Продолжительность трека
--------------------------------------------------------------------------------
DR17      -2.51 дБ   -23.66 дБ      7:57 01-Route 66
DR18      -8.54 дБ   -32.32 дБ      4:38 02-Moonlight in Vermont
DR18      -2.74 дБ   -25.85 дБ      6:27 03-Bei Mir Bist Du Schon
DR18      -3.90 дБ   -26.89 дБ      6:30 04-Kiss Of Life
DR19      -3.26 дБ   -36.08 дБ      4:26 05-Mona Lisa
DR16      -2.66 дБ   -23.11 дБ      7:12 06-Comin' Home Baby
DR17      -5.05 дБ   -27.78 дБ      3:55 07-My Heart Belongs to Daddy
DR17      -1.71 дБ   -26.69 дБ      4:19 08-Teach Me Tonight
DR18      -2.85 дБ   -24.65 дБ      8:34 09-Sunny
DR15      -6.79 дБ   -30.63 дБ      6:20 10-The Way We Were
--------------------------------------------------------------------------------

Количество треков: 10
Реальные значения DR: DR17

Частота:   2822400 Гц / Частота PCM: 88200 Гц
Каналов:   6
Разрядность:   1
Битрейт:   16934 кбит/с
Кодек:   DST64
================================================================================

--------------------------------------------------------------------------------
Анализ:   Grace Mahya / Last Live at DUG
--------------------------------------------------------------------------------

DR         Пики         RMS           Продолжительность трека
--------------------------------------------------------------------------------
DR12      -4.16 дБ   -18.35 дБ      7:57 01-Route 66
DR16      -4.72 дБ   -25.90 дБ      4:38 02-Moonlight in Vermont
DR13      -4.30 дБ   -20.52 дБ      6:27 03-Bei Mir Bist Du Schon
DR14      -4.16 дБ   -21.63 дБ      6:30 04-Kiss Of Life
DR17      -4.70 дБ   -30.28 дБ      4:26 05-Mona Lisa
DR11      -4.24 дБ   -17.74 дБ      7:12 06-Comin' Home Baby
DR13      -4.38 дБ   -20.89 дБ      3:55 07-My Heart Belongs to Daddy
DR14      -3.47 дБ   -20.12 дБ      4:19 08-Teach Me Tonight
DR11      -3.85 дБ   -17.42 дБ      8:34 09-Sunny
DR15      -4.43 дБ   -23.54 дБ      6:20 10-The Way We Were
--------------------------------------------------------------------------------

Количество треков: 10
Реальные значения DR: DR14

Частота:   2822400 Гц / Частота PCM: 88200 Гц
Каналов:   2
Разрядность:   1
Битрейт:   5645 кбит/с
Кодек:   DST64
================================================================================
Приватный:
Нет (DHT включён)
Размер:
4.28 Гб (4,599,122,370 байт) » файлов: 5
Участники:
3 раздают, 0 качают (3 участников всего)
Внешние участники:
8 раздают, 2 качают (10 участников всего) [ Обновить ]
No seeders - write personal message to M0p94ok. Any questions - support@pro-jazz.com.
Нет сидеров - пишите в личку M0p94ok. Есть вопросы - support@pro-jazz.com
19:25
1069
Нет комментариев. Ваш будет первым!