Поиск

2010 Louise Rogers - Black Coffee {Chesky} [DST64]

2010 Louise Rogers - Black Coffee {Chesky} [DST64]
Стили:
Издатель (лейбл):
Битрейт аудио:
lossless

Треклист:

01. Comes Love  04:27
02. Alice in Wonderland  02:57
03. Easy to Love  04:53
04. Sentimental Journey  03:43
05. Lazy Afternoon  02:42
06. Pennies from Heaven  04:46
07. Alright Okay You Win  03:47
08. Black Coffee  05:55
09. Ain't Misbehavin'  03:43
10. Happiness Is a Thing Called Joe  03:45
11. Skylark  04:41
12. When the Sun Comes Out  05:16
13. Be My Baby  04:13
14. Gentle Rain  03:32

Доп. инфо:

Формат записи/Источник записи: [SACD-R][OF]
Наличие водяных знаков: Нет
Год издания/переиздания диска: 2010
Продолжительность: 00:58:20
Наличие сканов в содержимом раздачи: Буклет PDF

Контейнер: ISO (*.iso)
Тип рипа: image
Разрядность: 64(2,8 MHz/1 Bit)
Формат: DST64
Количество каналов: 5.0 (4.0), 2.0

Источник (релизер): https://www.hmv.co.jp/en/artist_Louise-Rogers_000000000442602/item_Black-Coffee-Hyb_3929772

Лог проверки качества
foobar2000 1.4.8 / Замер динамического диапазона (DR) 1.1.1
Дата отчёта:  2019-11-11 17:55:21

--------------------------------------------------------------------------------
Анализ:   Louise Rogers / Black Coffee
--------------------------------------------------------------------------------

DR         Пики         RMS           Продолжительность трека
--------------------------------------------------------------------------------
DR10      -7.67 дБ   -27.86 дБ      4:27 01-Comes Love
DR10      -6.59 дБ   -27.22 дБ      2:57 02-Alice in Wonderland
DR11      -6.09 дБ   -27.42 дБ      4:53 03-Easy to Love
DR10      -7.09 дБ   -28.00 дБ      3:43 04-Sentimental Journey
DR9       -6.80 дБ   -27.93 дБ      2:42 05-Lazy Afternoon
DR10      -6.26 дБ   -26.57 дБ      4:46 06-Pennies From Heaven
DR11      -6.08 дБ   -25.70 дБ      3:47 07-Well Alright OK You Win
DR10      -6.09 дБ   -26.62 дБ      5:55 08-Black Coffee
DR11      -6.11 дБ   -29.10 дБ      3:43 09-Ain't Misbehaving
DR10      -6.94 дБ   -28.57 дБ      3:45 10-Happiness is Just a Thing Called Joe
DR11      -7.22 дБ   -28.80 дБ      4:41 11-Skylark
DR10      -6.55 дБ   -26.95 дБ      5:16 12-When the Sun Comes Out
DR10     -11.11 дБ   -29.93 дБ      4:13 13-Be My Baby
DR10      -6.13 дБ   -26.55 дБ      3:32 14-Gentle Rain
--------------------------------------------------------------------------------

Количество треков: 14
Реальные значения DR: DR10

Частота:   2822400 Гц / Частота PCM: 88200 Гц
Каналов:   5
Разрядность:   1
Битрейт:   14112 кбит/с
Кодек:   DST64
================================================================================

--------------------------------------------------------------------------------
Анализ:   Louise Rogers / Black Coffee
--------------------------------------------------------------------------------

DR         Пики         RMS           Продолжительность трека
--------------------------------------------------------------------------------
DR12      -7.67 дБ   -24.17 дБ      4:27 01-Comes Love
DR12      -6.59 дБ   -23.69 дБ      2:57 02-Alice in Wonderland
DR14      -6.09 дБ   -23.87 дБ      4:53 03-Easy to Love
DR13      -7.09 дБ   -24.50 дБ      3:43 04-Sentimental Journey
DR12      -6.80 дБ   -24.53 дБ      2:42 05-Lazy Afternoon
DR13      -6.26 дБ   -22.98 дБ      4:46 06-Pennies From Heaven
DR14      -6.08 дБ   -22.13 дБ      3:47 07-Well Alright OK You Win
DR12      -6.09 дБ   -23.10 дБ      5:55 08-Black Coffee
DR14      -6.11 дБ   -25.59 дБ      3:43 09-Ain't Misbehaving
DR12      -6.94 дБ   -25.03 дБ      3:45 10-Happiness is Just a Thing Called Joe
DR13      -7.22 дБ   -25.27 дБ      4:41 11-Skylark
DR12      -6.55 дБ   -23.44 дБ      5:16 12-When the Sun Comes Out
DR13     -11.11 дБ   -26.50 дБ      4:13 13-Be My Baby
DR13      -6.13 дБ   -23.13 дБ      3:32 14-Gentle Rain
--------------------------------------------------------------------------------

Количество треков: 14
Реальные значения DR: DR13

Частота:   2822400 Гц / Частота PCM: 88200 Гц
Каналов:   2
Разрядность:   1
Битрейт:   5645 кбит/с
Кодек:   DST64
================================================================================
Приватный:
Нет (DHT включён)
Размер:
2.53 Гб (2,719,889,789 байт) » файлов: 6
Участники:
0 раздают, 0 качают (0 участников всего)
Внешние участники:
7 раздают, 2 качают (9 участников всего) [ Обновить ]
No seeders - write personal message to M0p94ok. Нет сидеров - пишите в личку M0p94ok.
03:32
184
Нет комментариев. Ваш будет первым!