Поиск

2017 Jennine Bailey - In the Mood for Love (2020) {New Frontier} [24-44,1]

2017 Jennine Bailey - In the Mood for Love (2020) {New Frontier} [24-44,1]
Стили:
Дата издания диска:
23 апреля 2017
Битрейт аудио:
lossless

Треклист:

01 - I'm in the Mood for Love 04:53
02 - Night and Day 06:02
03 - Say It Isn't So 04:37
04 - No Moon at All 03:22
05 - If You Never Come to Me 04:25
06 - Sunday Kind of Love 04:33
07 - Moonlight in Vermont 04:40
08 - Perhaps, Perhaps, Perhaps 03:28
09 - How Long Has This Been Going On 04:35
10 - Now or Never 03:41
11 - Wild Is the Wind 05:03

Доп. инфо:

Формат записи/Источник записи: [TR24][OF]
Год издания/переиздания диска: 2020
Издатель (лейбл): New Frontier Records
Продолжительность: 00:49:19
Наличие сканов в содержимом раздачи: Нет

Контейнер: FLAC (*.flac)
Тип рипа: tracks
Разрядность: 24/44,1
Количество каналов: 2.0

Источник (релизер): HIGHRESAUDIO

Лог проверки качества
foobar2000 1.3.16 / Dynamic Range Meter 1.1.1
log date: 2020-09-18 16:02:42

--------------------------------------------------------------------------------
Analyzed: Jennine Bailey / In the Mood for Love
--------------------------------------------------------------------------------

DR         Peak         RMS     Duration Track
--------------------------------------------------------------------------------
DR9       -0.14 dB   -12.17 dB      4:53 01-I'm in the Mood for Love
DR11      -0.13 dB   -13.58 dB      6:03 02-Night and Day
DR13      -1.71 dB   -17.17 dB      4:37 03-Say It Isn't So
DR12      -0.16 dB   -14.67 dB      3:23 04-No Moon at All
DR12      -0.12 dB   -14.41 dB      4:25 05-If You Never Come to Me
DR12      -0.11 dB   -14.60 dB      4:34 06-Sunday Kind of Love
DR11      -0.32 dB   -14.37 dB      4:41 07-Moonlight in Vermont
DR10       0.00 dB   -12.32 dB      3:29 08-Perhaps, Perhaps, Perhaps
DR12      -0.45 dB   -15.33 dB      4:35 09-How Long Has This Been Going On
DR12      -0.07 dB   -13.66 dB      3:41 10-Now or Never
DR11      -0.22 dB   -14.75 dB      5:04 11-Wild Is the Wind
--------------------------------------------------------------------------------

Number of tracks:  11
Official DR value: DR11

Samplerate:        44100 Hz
Channels:          2
Bits per sample:   24
Bitrate:           1557 kbps
Codec:             FLAC
================================================================================
Приватный:
Нет (DHT включён)
Размер:
565.75 Мб (593,231,328 байт) » файлов: 16
Участники:
7 раздают, 0 качают (7 участников всего)
Внешние участники:
10 раздают, 3 качают (13 участников всего) [ Обновить ]
No seeders - write personal message to M0p94ok. Нет сидеров - пишите в личку M0p94ok.
11:02
232
Нет комментариев. Ваш будет первым!