Поиск

1993 Susannah McCorkle (feat. Ken Peplowski) - From Bessie to Brazil (2003) {Concord} [DST64]

1993 Susannah McCorkle (feat. Ken Peplowski) - From Bessie to Brazil (2003) {Concord} [DST64]
Стили:
Издатель (лейбл):
Битрейт аудио:
lossless

Треклист:

01. Love   03:30
02. The People That You Never Get To Love   04:43
03. Thief In The Night   03:45
04. The Waters Of March   03:57
05. Ac-cent-tchu-ate The Positive   04:01
06. How Deep Is The Ocean?   04:04
07. The Lady Is A Tramp   04:52
08. Quality Time   04:21
09. My Sweetie Went Away   03:16
10. Still Crazy After All These Years   04:13
11. Adeus America   06:10
12. That Ole Devil Called Love   02:33
13. Hit The Road To Dreamland   05:16
14. You Go To My Head   04:09

Доп. инфо:

Формат записи/Источник записи: [SACD-R][OF]
Наличие водяных знаков: Нет
Год издания/переиздания диска: 1993/2003
Продолжительность: 00:59:44
Наличие сканов в содержимом раздачи: Да (сканы)

Контейнер: ISO (*.iso)
Тип рипа: image
Разрядность: 64(2,8 MHz/1 Bit)
Формат: DST64
Количество каналов: 5.1, 2.0

Источник (релизер): https://www.amazon.com/Bessie-Brazil-Susannah-Mccorkle/dp/B0000AUHSA

Лог проверки качества
foobar2000 1.4.8 / Замер динамического диапазона (DR) 1.1.1
Дата отчёта:  2019-11-20 10:40:54

--------------------------------------------------------------------------------
Анализ:   Susannah McCorkle / From Bessie to Brazil
--------------------------------------------------------------------------------

DR         Пики         RMS           Продолжительность трека
--------------------------------------------------------------------------------
DR13      -4.09 дБ   -25.50 дБ      3:33 01-Love
DR13      -6.55 дБ   -32.39 дБ      4:47 02-The People That You Never Get To Love
DR13      -4.99 дБ   -30.14 дБ      3:49 03-Thief in the Night
DR13      -9.33 дБ   -31.09 дБ      4:01 04-The Waters of March
DR14      -5.61 дБ   -28.80 дБ      4:05 05-Ac-cent-tchu-ate the Positive
DR12     -11.39 дБ   -34.51 дБ      4:07 06-How Deep is the Ocean?
DR15      -6.04 дБ   -29.28 дБ      4:56 07-The Lady is a Tramp
DR13      -6.99 дБ   -30.32 дБ      4:24 08-Quality Time
DR14      -6.31 дБ   -27.15 дБ      3:19 09-My Sweetie Went Away
DR14      -5.91 дБ   -29.91 дБ      4:16 10-Still Crazy After All These Years
DR14      -7.01 дБ   -30.44 дБ      6:14 11-Adeus America
DR15     -16.29 дБ   -38.43 дБ      2:37 12-That Ole Devil Called Love
DR15      -4.98 дБ   -28.46 дБ      5:20 13-Hit the Road to Dreamland
DR13     -10.90 дБ   -34.04 дБ      4:14 14-You Go To My Head
--------------------------------------------------------------------------------

Количество треков: 14
Реальные значения DR: DR14

Частота:   2822400 Гц / Частота PCM: 88200 Гц
Каналов:   6
Разрядность:   1
Битрейт:   16934 кбит/с
Кодек:   DST64
================================================================================

--------------------------------------------------------------------------------
Анализ:   Susannah McCorkle / From Bessie to Brazil
--------------------------------------------------------------------------------

DR         Пики         RMS           Продолжительность трека
--------------------------------------------------------------------------------
DR12     -10.37 дБ   -25.29 дБ      3:33 01-Love
DR13     -10.40 дБ   -27.71 дБ      4:47 02-The People That You Never Get To Love
DR13      -8.40 дБ   -25.62 дБ      3:49 03-Thief in the Night
DR13     -10.62 дБ   -28.32 дБ      4:01 04-The Waters of March
DR13      -6.86 дБ   -23.32 дБ      4:05 05-Ac-cent-tchu-ate the Positive
DR13      -8.23 дБ   -26.09 дБ      4:07 06-How Deep is the Ocean?
DR14      -7.92 дБ   -24.21 дБ      4:56 07-The Lady is a Tramp
DR14      -6.63 дБ   -26.02 дБ      4:24 08-Quality Time
DR13      -8.84 дБ   -24.55 дБ      3:19 09-My Sweetie Went Away
DR13      -7.78 дБ   -25.67 дБ      4:16 10-Still Crazy After All These Years
DR14      -8.17 дБ   -25.21 дБ      6:14 11-Adeus America
DR13     -14.49 дБ   -30.59 дБ      2:37 12-That Ole Devil Called Love
DR15      -7.50 дБ   -25.61 дБ      5:20 13-Hit the Road to Dreamland
DR13     -10.76 дБ   -27.28 дБ      4:14 14-You Go To My Head
--------------------------------------------------------------------------------

Количество треков: 14
Реальные значения DR: DR13

Частота:   2822400 Гц / Частота PCM: 88200 Гц
Каналов:   2
Разрядность:   1
Битрейт:   5645 кбит/с
Кодек:   DST64
================================================================================
Приватный:
Нет (DHT включён)
Размер:
3.52 Гб (3,774,808,736 байт) » файлов: 9
Участники:
0 раздают, 0 качают (0 участников всего)
Внешние участники:
5 раздают, 2 качают (7 участников всего) [ Обновить ]
No seeders - write personal message to M0p94ok. Any questions - support@pro-jazz.com.
Нет сидеров - пишите в личку M0p94ok. Есть вопросы - support@pro-jazz.com
11:53
219
Нет комментариев. Ваш будет первым!