Поиск

1969 Bobby Scott - Star (2019) {Columbia, Legacy} [24-96]

1969 Bobby Scott - Star (2019) {Columbia, Legacy} [24-96]
Стили:
Издатель (лейбл):
Битрейт аудио:
lossless
Доп. инфо:

Формат записи/Источник записи: [TR24][OF]
Издание: Remastered
Год издания/переиздания диска: 1969/2019
Продолжительность: 00:32:37
Наличие сканов в содержимом раздачи: Нет

Контейнер: FLAC (*.flac)
Тип рипа: tracks
Разрядность: 24/96
Количество каналов: 2.0

Источник (релизер): HIGHRESAUDIO

Лог проверки качества
foobar2000 1.4.3 / Dynamic Range Meter 1.1.1
log date: 2020-10-25 07:02:35

--------------------------------------------------------------------------------
Analyzed: Bobby Scott / Star (Remastered)
--------------------------------------------------------------------------------

DR         Peak         RMS     Duration Track
--------------------------------------------------------------------------------
DR11      -0.25 dB   -14.58 dB      3:14 01-Give Me Tomorrow
DR11      -1.01 dB   -15.70 dB      2:14 02-Till There Was You
DR9       -3.70 dB   -17.39 dB      3:11 03-I'll Only Miss Her When I Think of Her
DR10      -1.99 dB   -14.68 dB      3:26 04-Climb Ev'ry Mountain
DR10      -3.11 dB   -15.96 dB      2:20 05-Nothing Can Save Us Now
DR11      -1.02 dB   -14.08 dB      2:12 06-Star!
DR11      -1.18 dB   -15.03 dB      3:14 07-Don't Pay Them No Mind
DR9       -3.75 dB   -17.35 dB      4:03 08-Blue Gardenia
DR10       0.00 dB   -15.16 dB      2:25 09-I've Never Been In Love Before
DR10      -2.19 dB   -18.01 dB      3:15 10-Hooray
DR10      -0.95 dB   -14.84 dB      3:07 11-Paris Is at Her Best In May
--------------------------------------------------------------------------------

Number of tracks:  11
Official DR value: DR10

Samplerate:        96000 Hz
Channels:          2
Bits per sample:   24
Bitrate:           3147 kbps
Codec:             FLAC
================================================================================
No seeders - write personal message to M0p94ok. Any questions - support@pro-jazz.com.
Нет сидеров - пишите в личку M0p94ok. Есть вопросы - support@pro-jazz.com
12:37
255
Нет комментариев. Ваш будет первым!