Вы используете незарегистрированную версию компонента "Вкладки"!

Поиск

1974, 1971 Percy Faith & His Orchestra - New Thing & Black Magic Woman (2019) {Vocalion} [DST64]

1974, 1971 Percy Faith & His Orchestra - New Thing & Black Magic Woman (2019) {Vocalion} [DST64]
Стили:
Издатель (лейбл):
Битрейт аудио:
lossless
Доп. инфо:

Формат записи/Источник записи: [SACD-R][OF]
Наличие водяных знаков: Нет
Год издания/переиздания диска: 1974,1971/2019
Продолжительность: 01:11:43, 01:11:45
Наличие сканов в содержимом раздачи: Только обложка альбома

Контейнер: ISO (*.iso)
Тип рипа: image
Разрядность: 64(2,8 MHz/1 Bit)
Формат: DST64
Количество каналов: 5.1 (4.0), 2.0

Источник (релизер): https://www.jpc.de/jpcng/poprock/detail/-/art/percy-faith-new-thing-sacd/hnum/8928147

Лог проверки качества
foobar2000 1.4.8 / Замер динамического диапазона (DR) 1.1.1
Дата отчёта:  2019-12-06 17:48:02

--------------------------------------------------------------------------------
Анализ:   Percy Faith / New Thing & Black Magic Woman
--------------------------------------------------------------------------------

DR         Пики         RMS           Продолжительность трека
--------------------------------------------------------------------------------
DR8       -7.10 дБ   -24.99 дБ      5:24 01-Hill Where the Lord Hides
DR9       -7.12 дБ   -27.75 дБ      2:42 02-Washington Square
DR8       -8.83 дБ   -25.99 дБ      2:33 03-Serpico
DR7      -10.57 дБ   -27.86 дБ      3:22 04-Stranger on the Shore
DR8       -7.60 дБ   -24.31 дБ      2:45 05-Land of a Thousand Dances
DR8       -9.53 дБ   -29.54 дБ      3:56 06-Euterpe
DR8       -7.93 дБ   -27.13 дБ      3:16 07-The Way We Were
DR8       -6.91 дБ   -23.46 дБ      2:32 08-The Pelican Dance
DR8       -8.10 дБ   -25.48 дБ      2:35 09-Eres Tu  Touch the Wind
DR8       -7.30 дБ   -25.40 дБ      3:05 10-Skybird
DR8       -9.43 дБ   -26.74 дБ      4:02 11-Angelica
DR7       -8.14 дБ   -24.72 дБ      3:32 12-Black Magic Woman
DR8       -9.45 дБ   -27.43 дБ      3:16 13-Sun King
DR8       -8.75 дБ   -25.56 дБ      2:35 14-Big Yellow Taxi
DR7      -11.22 дБ   -27.74 дБ      2:54 15- If
DR8       -8.29 дБ   -25.09 дБ      3:23 16-Reza Rayza
DR7       -9.17 дБ   -26.40 дБ      3:40 17-The Wailing of the Willow
DR7       -8.70 дБ   -25.50 дБ      3:18 18-Viva Tirado
DR8       -9.10 дБ   -24.59 дБ      3:03 19-Oye Como Va
DR7      -10.42 дБ   -26.43 дБ      3:07 20-Wave
DR7       -9.68 дБ   -25.25 дБ      3:05 21-Never Can Say Goodbye
DR8       -8.52 дБ   -26.53 дБ      3:39 22-Tres
--------------------------------------------------------------------------------

Количество треков: 22
Реальные значения DR: DR8

Частота:   2822400 Гц / Частота PCM: 88200 Гц
Каналов:   6
Разрядность:   1
Битрейт:   16934 кбит/с
Кодек:   DST64
================================================================================

--------------------------------------------------------------------------------
Анализ:   Percy Faith / New Thing & Black Magic Woman
--------------------------------------------------------------------------------

DR         Пики         RMS           Продолжительность трека
--------------------------------------------------------------------------------
DR11      -8.32 дБ   -21.90 дБ      5:24 01-Hill Where the Lord Hides
DR12      -8.52 дБ   -22.75 дБ      2:42 02-Washington Square
DR11      -8.88 дБ   -22.47 дБ      2:33 03-Serpico
DR10     -10.14 дБ   -22.95 дБ      3:22 04-Stranger on the Shore
DR11      -7.66 дБ   -21.52 дБ      2:45 05-Land of a Thousand Dances
DR9       -9.86 дБ   -23.65 дБ      3:56 06-Euterpe
DR10      -9.97 дБ   -23.92 дБ      3:16 07-The Way We Were
DR11      -7.77 дБ   -20.41 дБ      2:32 08-The Pelican Dance
DR9       -9.96 дБ   -21.79 дБ      2:35 09-Eres Tu  Touch the Wind
DR11      -8.33 дБ   -21.66 дБ      3:05 10-Skybird
DR9      -10.36 дБ   -22.82 дБ      4:02 11-Angelica
DR11      -9.19 дБ   -22.68 дБ      3:32 12-Black Magic Woman
DR11      -8.53 дБ   -24.83 дБ      3:16 13-Sun King
DR12      -8.81 дБ   -23.85 дБ      2:35 14-Big Yellow Taxi
DR9      -11.23 дБ   -23.94 дБ      2:54 15- If
DR11      -8.81 дБ   -22.71 дБ      3:23 16-Reza Rayza
DR11      -9.34 дБ   -24.23 дБ      3:42 17-The Wailing of the Willow
DR11      -9.65 дБ   -22.92 дБ      3:18 18-Viva Tirado
DR11      -9.84 дБ   -23.04 дБ      3:03 19-Oye Como Va
DR10      -9.61 дБ   -24.39 дБ      3:07 20-Wave
DR11      -9.59 дБ   -22.80 дБ      3:05 21-Never Can Say Goodbye
DR11      -9.09 дБ   -24.14 дБ      3:39 22-Tres
--------------------------------------------------------------------------------

Количество треков: 22
Реальные значения DR: DR11

Частота:   2822400 Гц / Частота PCM: 88200 Гц
Каналов:   2
Разрядность:   1
Битрейт:   5645 кбит/с
Кодек:   DST64
================================================================================
Any questions - support@pro-jazz.com. Есть вопросы - support@pro-jazz.com
12:55
286
Нет комментариев. Ваш будет первым!