Поиск

2019 Fred Frith - All Is Always Now (Live) {Intakt} [24-44,1]

2019 Fred Frith - All Is Always Now (Live) {Intakt} [24-44,1]
Место записи:
The Stone, New York, USA
Дата издания диска:
15 марта 2019
Издатель (лейбл):
Номер по каталогу:
Intakt CD 320
Носитель:
WEB
Формат:
PCM
Тип рипа:
tracks+.cue
Контейнер:
APE (*.ape)
Количество каналов:
2.0
Разрядность/ЧД:
24/44,1
Битрейт аудио:
lossless
Время звучания:
03:18:32
Наличие сканов:
web
Страна-производитель диска (релиза):
Switzerland
Релизёр (источник):
M0p94ok
Доп. инфо:

С 2006 по 2016 год Фред Фриc дал 80 концертов в уникальном месте Нью-Йорка для экспериментальной музыки The Stone. Подборка его встреч с такими мощными и творческими личностями, такие как Лори Андерсон, Полин Оливерос, Сильви Курвуазье, Эван Паркер, Нейт Вули были объединены в этот бокс-сет из 3 компакт-дисков, включающий 23 увлекательных трека. Десятилетнее приключение в импровизации. Музыкант Тереза Вонг пишет: «Меня поразила музыкальность. Под этим я подразумеваю присутствие композиции и формы - музыка может быть гармоничной и мелодичной, есть шум, есть ритм, радость, исследование, чувственность звуков, но всегда подчеркнутая музыкальность, которая мне кажется песней».

Лог проверки качества
foobar2000 1.6.2 / Dynamic Range Meter 1.1.1
log date: 2020-12-28 19:07:42

--------------------------------------------------------------------------------
Analyzed: Fred Frith, Evan Parker / All Is Always Now (Live) (1)
          Fred Frith, Shelley Hirsch / All Is Always Now (Live) (2)
          Fred Frith / All Is Always Now (Live) (3-23)
--------------------------------------------------------------------------------

DR         Peak         RMS     Duration Track
--------------------------------------------------------------------------------
DR15      -0.20 dB   -20.14 dB     10:44 15-A Measure of Solace (Live)
DR10      -0.20 dB   -15.95 dB      8:15 12-Reasons to Dream (Live)
DR15      -0.20 dB   -19.69 dB      5:16 01-Another Ship Moves In (Live)
DR9       -0.20 dB   -13.90 dB     11:40 02-Identity Crisis (Live)
DR12      -0.20 dB   -17.45 dB      7:41 03-A Complicated Path (Live)
DR13      -0.20 dB   -18.46 dB      9:30 04-Strife and Soil (Live)
DR10      -0.20 dB   -14.94 dB      6:13 05-Limited Strike (Live)
DR19      -0.10 dB   -24.52 dB      3:09 06-Silver Lining (Live)
DR9       -0.20 dB   -14.24 dB     16:27 07-Slipping (Live)
DR14      -0.10 dB   -18.51 dB      6:52 08-World of Grief and Doubt (Live)
DR9       -0.20 dB   -13.71 dB      6:39 09-Concussion Suit (Live)
DR12      -0.20 dB   -16.93 dB      6:32 10-From the Backstretch (Live)
DR8       -0.20 dB   -13.62 dB     14:10 11-Shrug at Truth (Live)
DR10      -0.20 dB   -14.43 dB      8:12 13-What Gets Left Behind (Live)
DR8       -0.20 dB   -13.87 dB     10:55 14-Like Animals (Live)
DR11      -0.10 dB   -16.67 dB      8:57 16-Deter and Degrade (Live)
DR11      -0.10 dB   -15.21 dB      3:29 17-Of Finest Silver (Live)
DR9       -0.10 dB   -13.24 dB      6:25 18-Veils: Veils (Live)
DR13      -0.10 dB   -18.34 dB      7:04 19-Held Again (Live)
DR10      -0.10 dB   -13.99 dB     19:18 20-Flare: Flare (Live)
DR9       -0.10 dB   -13.46 dB      7:01 21-Hero of the Space Age (Live)
DR7       -0.10 dB   -11.60 dB      6:06 22-Devoted to a Failed Approach (Live)
DR12      -0.10 dB   -16.03 dB      8:10 23-Evidence (Live)
--------------------------------------------------------------------------------

Number of tracks:  23
Official DR value: DR11

Samplerate:        44100 Hz
Channels:          2
Bits per sample:   24
Bitrate:           1280 kbps
Codec:             FLAC
================================================================================
No seeders - write personal message to M0p94ok. Any questions - support@pro-jazz.com.
Нет сидеров - пишите в личку M0p94ok. Есть вопросы - support@pro-jazz.com
20:31
232
Нет комментариев. Ваш будет первым!