Вы используете незарегистрированную версию компонента "Вкладки"!

Поиск

2019 Claude Luter, Barney Bigard - Miracles {Nagel Heyer} [24-44,1]

2019 Claude Luter, Barney Bigard - Miracles {Nagel Heyer} [24-44,1]
Дата издания диска:
29 августа 2019
Издатель (лейбл):
Битрейт аудио:
lossless
Доп. инфо:

Формат записи/Источник записи: [TR24][OF]
Издание: Remastered
Год издания/переиздания диска: 2019
Продолжительность: 01:08:12
Наличие сканов в содержимом раздачи: Нет

Контейнер: FLAC (*.flac)
Тип рипа: tracks
Разрядность: 24/44,1
Количество каналов: 2.0

Источник (релизер): Qobuz

Лог проверки качества
foobar2000 1.4.3 / Dynamic Range Meter 1.1.1
log date: 2020-11-03 19:28:53

--------------------------------------------------------------------------------
Analyzed: Claude Luter / Miracles
--------------------------------------------------------------------------------

DR         Peak         RMS     Duration Track
--------------------------------------------------------------------------------
DR11      -1.93 dB   -16.23 dB      3:38 01-C Jam Blues
DR11      -2.22 dB   -15.94 dB      3:15 02-Promenade Aux Champs-Élysées
DR12      -1.97 dB   -17.41 dB      5:52 03-Mood Indigo
DR11      -1.93 dB   -16.29 dB      4:12 04-Double Gin Stomp
DR13      -1.96 dB   -16.93 dB      5:08 05-Honeysuckle Rose
DR11      -1.89 dB   -16.20 dB      4:17 06-Sweet Lorraine
DR12      -1.97 dB   -15.72 dB      4:10 07-Royal Garden Blues
DR12      -2.04 dB   -17.56 dB      5:23 08-Doo Boo Loo Blues
DR12      -2.23 dB   -16.11 dB      5:07 09-China Boy
DR11      -1.95 dB   -16.70 dB      3:39 10-S Wonderful
DR12      -2.07 dB   -16.77 dB      5:15 11-Struttin' with Some Barbecue
DR12      -2.55 dB   -18.13 dB      3:54 12-Sobbin' and Cryin'
DR12      -1.93 dB   -15.35 dB      5:04 13-Honeysuckle Rose II
DR12      -2.00 dB   -17.03 dB      4:13 14-Double Gin Stomp II
DR12      -2.01 dB   -16.54 dB      5:11 15-China Boy II
--------------------------------------------------------------------------------

Number of tracks:  15
Official DR value: DR12

Samplerate:        44100 Hz
Channels:          2
Bits per sample:   24
Bitrate:           1527 kbps
Codec:             FLAC
================================================================================
Any questions - support@pro-jazz.com. Есть вопросы - support@pro-jazz.com
15:20
219
Нет комментариев. Ваш будет первым!