Поиск

2013 Trio 3, Geri Allen - At This Time {Intakt} [24-88,2]

2013 Trio 3, Geri Allen - At This Time {Intakt} [24-88,2]
Стили:
Дата записи диска:
29 августа - 30 августа 2008
Место записи:
Studio Peter Karl Brooklyn, New York City, NY, USA
Издатель (лейбл):
Номер по каталогу:
Intakt CD 162
Носитель:
WEB
Формат:
PCM
Тип рипа:
tracks+.cue
Контейнер:
APE (*.ape)
Количество каналов:
2.0
Разрядность/ЧД:
24/88,2
Битрейт аудио:
lossless
Время звучания:
01:00:51
Наличие сканов:
web
Страна-производитель диска (релиза):
Switzerland
Релизёр (источник):
M0p94ok
Доп. инфо:

At This Time - это альбом Trio 3, джазовой группы, состоящей из саксофониста Оливера Лейка , басиста Реджи Уоркмана и барабанщика Эндрю Сирилла с приглашенной пианисткой Джери Аллен. Он был записан в 2008 году и выпущен компанией Intakt Records.

Перед этой записью Джери Аллен сотрудничала с каждым из участников Trio 3. С момента первого переезда в Нью-Йорк из Детройта, она выступала в составе ансамблей Лейка на протяжении 80-х годов. Сирил играл на дебютной записи Аллен 1984 года в качестве лидера The Printmakers. Уоркман представил Аллен в своей записи 1995 года Cerebral Caverns.

В обзоре Down Beat, написанном Питером Маргасаком, говорится: «Аллен работала со всеми тремя участниками, поэтому она вписывается в типично резкую, пробную программу, стирающую границы между пост-бопом и фри-джазом». В обзоре Криса Мэя All About Jazz отмечается, что «любовь Аллена к мелодиям и последовательностям аккордов, а также ее плавный рапсодизм делают ее творческим выбором партнера для Трио 3, и встреча прошла чудесно».

Лог проверки качества
foobar2000 1.6.2 / Dynamic Range Meter 1.1.1
log date: 2020-12-28 00:39:14

--------------------------------------------------------------------------------
Analyzed: Trio 3 / Trio 3: At This Time
--------------------------------------------------------------------------------

DR         Peak         RMS     Duration Track
--------------------------------------------------------------------------------
DR13      -0.09 dB   -15.83 dB      6:59 01-Swamini
DR12      -0.09 dB   -13.79 dB      6:12 02-Gazzelloni
DR14      -1.19 dB   -18.22 dB      5:21 03-For Patrik L.
DR12      -0.09 dB   -13.09 dB      3:42 04-All Net
DR11      -0.09 dB   -12.84 dB      6:55 05-Current
DR13      -0.09 dB   -14.86 dB      8:26 06-Lake's Jump
DR14      -1.32 dB   -20.32 dB      6:26 07-Long Melody
DR13      -0.09 dB   -16.95 dB      5:56 08-Tey
DR12      -0.23 dB   -16.90 dB      4:17 09-Barbara's Rainbow
DR15      -0.09 dB   -19.02 dB      6:44 10-In the Realm … of the Child … of True Humanity Within (Gospel of Mary)
--------------------------------------------------------------------------------

Number of tracks:  10
Official DR value: DR13

Samplerate:        88200 Hz
Channels:          2
Bits per sample:   24
Bitrate:           2218 kbps
Codec:             FLAC
================================================================================
No seeders - write personal message to M0p94ok. Any questions - support@pro-jazz.com.
Нет сидеров - пишите в личку M0p94ok. Есть вопросы - support@pro-jazz.com
01:44
194
Нет комментариев. Ваш будет первым!