Поиск

2020 George Benson - Weekend in London (Live) {Mascot, Provogue PRD76152} [24-48]

2020 George Benson - Weekend in London (Live) {Mascot, Provogue PRD76152} [24-48]
Дата издания диска:
13 ноября 2020
Номер по каталогу:
PRD76152
Битрейт аудио:
lossless
Доп. инфо:

Формат записи/Источник записи: [TR24][OF]
Год издания/переиздания диска: 2020
Издатель (лейбл): Mascot Label Group/Provogue
Продолжительность: 01:12:24
Наличие сканов в содержимом раздачи: только обложка

Контейнер: FLAC (*.flac)
Тип рипа: tracks
Разрядность: 24/48
Количество каналов: 2.0

Источник (релизер): PROSTUDIOMASTERS

Лог проверки качества
foobar2000 1.4.3 / Dynamic Range Meter 1.1.1
log date: 2020-11-13 19:01:27

--------------------------------------------------------------------------------
Analyzed: George Benson / Weekend in London (Live)
--------------------------------------------------------------------------------

DR         Peak         RMS     Duration Track
--------------------------------------------------------------------------------
DR8        0.00 dB    -8.77 dB      7:26 01-Give Me The Night  (Live)
DR6        0.00 dB    -7.40 dB      4:24 02-Turn Your Love Around  (Live)
DR7        0.00 dB    -8.11 dB      6:02 03-Love X Love  (Live)
DR7        0.00 dB    -9.06 dB      4:55 04-In Your Eyes  (Live)
DR6        0.00 dB    -7.20 dB      2:46 05-I Hear You Knocking  (Live)
DR7        0.00 dB    -8.64 dB      4:07 06-Nothing's Gonna Change My Love For You  (Live)
DR6        0.00 dB    -7.89 dB      5:19 07-Feel Like Makin' Love  (Live)
DR7        0.00 dB    -8.96 dB      4:16 08-Don't Let Me Be Lonely Tonight  (Live)
DR6        0.00 dB    -7.85 dB      6:15 09-The Ghetto  (Live)
DR6        0.00 dB    -8.63 dB      4:05 10-Moody's Mood  (Live)
DR6        0.00 dB    -7.24 dB      5:36 11-Love Ballad  (Live)
DR6        0.00 dB    -7.61 dB      4:41 12-Never Give Up On A Good Thing  (Live)
DR6        0.00 dB    -7.39 dB      7:03 13-Affirmation  (Live)
DR7        0.00 dB    -7.98 dB      5:35 14-Cruise Control  (Live)
--------------------------------------------------------------------------------

Number of tracks:  14
Official DR value: DR7

Samplerate:        48000 Hz
Channels:          2
Bits per sample:   24
Bitrate:           1743 kbps
Codec:             FLAC
================================================================================
No seeders - write personal message to M0p94ok. Any questions - support@pro-jazz.com.
Нет сидеров - пишите в личку M0p94ok. Есть вопросы - support@pro-jazz.com
00:46
190
Нет комментариев. Ваш будет первым!