Поиск

2011 East Drive feat. Olivia Trummer – Folksongs {Neuklang NCD4057} [24-44,1]

2011 East Drive feat. Olivia Trummer – Folksongs {Neuklang NCD4057} [24-44,1]
Место записи:
Bauer Studios, Ludwigsburg, Germany
Дата издания диска:
1 июня 2011
Издатель (лейбл):
Номер по каталогу:
NCD4057
Носитель:
WEB
Формат:
PCM
Тип рипа:
tracks+.cue
Контейнер:
APE (*.ape)
Количество каналов:
2.0
Разрядность/ЧД:
24/44,1
Битрейт аудио:
lossless
Время звучания:
01:04:30
Наличие сканов:
да
Страна-производитель диска (релиза):
Germany
Релизёр (источник):
M0p94ok
Лог проверки качества
foobar2000 1.6.2 / Dynamic Range Meter 1.1.1
log date: 2020-12-27 21:47:12

--------------------------------------------------------------------------------
Analyzed: East Drive / Folksongs
--------------------------------------------------------------------------------

DR         Peak         RMS     Duration Track
--------------------------------------------------------------------------------
DR7       -0.12 dB    -8.93 dB      4:23 01-Tea Master
DR8       -0.04 dB   -10.07 dB      9:14 02-City Shepherds
DR8       -0.22 dB   -11.46 dB      7:50 03-Teraz
DR12      -0.23 dB   -15.87 dB      5:26 04-Podmoskovnye Vechera
DR11      -0.22 dB   -14.17 dB      5:28 05-Folksong I
DR10      -0.23 dB   -13.30 dB      9:49 06-Ashanti
DR9       -0.23 dB   -11.32 dB      8:00 07-Folksong Iii
DR8       -0.13 dB   -11.33 dB      9:33 08-Energovitch
DR9        0.00 dB   -11.90 dB      4:53 09-Tjaga Motina
--------------------------------------------------------------------------------

Number of tracks:  9
Official DR value: DR9

Samplerate:        44100 Hz
Channels:          2
Bits per sample:   24
Bitrate:           1386 kbps
Codec:             FLAC
================================================================================
No seeders - write personal message to M0p94ok. Any questions - support@pro-jazz.com.
Нет сидеров - пишите в личку M0p94ok. Есть вопросы - support@pro-jazz.com
22:59
162
Нет комментариев. Ваш будет первым!