Вы используете незарегистрированную версию компонента "Вкладки"!

Поиск

2020 King Khan - The Infinite Ones {Khannibalisim, Ernest Jenning} [24-44,1]

2020 King Khan - The Infinite Ones {Khannibalisim, Ernest Jenning} [24-44,1]
Стили:
Битрейт аудио:
lossless
Доп. инфо:

Формат записи/Источник записи: [TR24][OF]
Наличие водяных знаков: Нет
Год издания: 2020
Издатель (лейбл): Khannibalisim - Ernest Jenning Record Co.
Продолжительность: 00:37:49
Наличие сканов в содержимом раздачи: Только обложка
Источник: qobuz
Контейнер: FLAC (*.flac)
Тип рипа: tracks
Разрядность: 24/44,1
Формат: PCM
Количество каналов: 2.0

Лог проверки качества
foobar2000 1.4.1 / Dynamic Range Meter 1.1.1
log date: 2020-10-30 17:05:33

––––––––––––––––––––––––––––––––––––––––
Analyzed: King Khan / The Infinite Ones
––––––––––––––––––––––––––––––––––––––––

DR Peak RMS Duration Track
––––––––––––––––––––––––––––––––––––––––
DR8 -1.39 dB -10.58 dB 2:43 01-Wait Till the Stars Burn
DR9 -1.06 dB -12.50 dB 3:39 02-Tribute to the Pharaoh's Den
DR11 -0.59 dB -13.23 dB 6:02 03-(White Nile) Flows Through Memphis
DR9 -0.51 dB -11.96 dB 2:19 04-A Hard Rain's Gotta Fall
DR10 -0.22 dB -12.17 dB 2:12 05-Theme of Yahya
DR10 -0.07 dB -12.05 dB 2:01 06-Mister Mystery
DR9 -1.16 dB -12.50 dB 5:00 07-Xango Rising
DR7 -0.67 dB -10.67 dB 2:30 08-The World Will Never Know
DR9 -0.88 dB -11.35 dB 2:44 09-Trail of Tears
DR10 -0.21 dB -12.58 dB 4:44 10-Follow the Mantis
DR11 -0.19 dB -12.82 dB 3:55 11-Hal
––––––––––––––––––––––––––––––––––––––––

Number of tracks: 11
Official DR value: DR9

Samplerate: 44100 Hz
Channels: 2
Bits per sample: 24
Bitrate: 1608 kbps
Codec: FLAC
================================================================================
Any questions - support@pro-jazz.com. Есть вопросы - support@pro-jazz.com
22:15
194
Нет комментариев. Ваш будет первым!