Поиск

2012 Christof Heringer - Quartets and Trios {Chaos} [24-44,1]

2012 Christof Heringer - Quartets and Trios {Chaos} [24-44,1]
Стили:
Дата издания диска:
2 ноября 2012
Носитель:
WEB
Формат:
PCM
Тип рипа:
tracks+.cue
Контейнер:
APE (*.ape)
Количество каналов:
2.0
Разрядность/ЧД:
24/44,1
Битрейт аудио:
lossless
Время звучания:
01:03:59
Наличие сканов:
web
Наличие водяных знаков:
нет
Релизёр (источник):
M0p94ok

Треклист:

01. Miles Reloaded  04:39
02. Russ's Hour  04:03
03. Lines from John & Miles  04:54
04. In Memoriam Michel Petrucciani  04:07
05. Fallin' Leafs  05:23
06. Herbie's Mood  02:40
07. The Red Stones  05:26
08. Waiting for You  05:58
09. Porto Sol  05:59
10. Now's the Time  00:31
11. Space Part Two  00:38
12. Savannah  07:00
13. Sadness  06:41
14. Thanksong  04:35
15. Downward  01:25

Доп. инфо:

https://www.highresaudio.com/en/album/view/hrjki8/christof-heringer-quartets-and-trios

В плане вдохновения и мотивации игра и сочинение джаза открывают множество возможностей. В этом проекте снова создаются новые звуки и лязг, упакованные в ритмичный альбом.

Разнообразие альбома Quartets and Trios простирается от поп-джаза а-ля Fourplay и Пэта Метени до джазового стандарта и баллад. От джаз-рока 80-х в стиле Чика Кориа и Майлза Дэвиса, а также традиционного и современного модерна и латинского джаза. Все композиции написаны Кристофом Герингером. Все основано на девизе «Джаз - это весело играть!» (цитата из Марты Майерс). Этот альбом включает в себя материал, созданный между 1993 и 2011 годами.

Несмотря на то, что он черпает вдохновение у великих джазовых музыкантов, все композиции очень уникальные и личные. Музыка имеет индивидуальный и обособленный характер. Благодаря разнообразной и виртуозной игре музыкантов, музыка по-настоящему заводит.

Пусть творчество и азарт надолго пребудут с Вами!

Лог проверки качества
foobar2000 1.3.16 / Dynamic Range Meter 1.1.1
log date: 2019-04-03 22:59:39

--------------------------------------------------------------------------------
Analyzed: Christof Heringer / Quartets and Trios
--------------------------------------------------------------------------------

DR         Peak         RMS     Duration Track
--------------------------------------------------------------------------------
DR11      -0.27 dB   -13.59 dB      4:40 01-Miles Reloaded
DR11      -0.29 dB   -13.47 dB      4:03 02-Russ's Hour
DR12      -0.28 dB   -13.83 dB      4:55 03-Lines from John & Miles
DR12      -0.30 dB   -13.85 dB      4:07 04-In Memoriam Michel Petrucciani
DR12      -0.27 dB   -14.88 dB      5:23 05-Fallin' Leafs
DR13      -0.27 dB   -15.21 dB      4:27 06-Herbie's Mood
DR11      -0.22 dB   -13.71 dB      5:26 07-The Red Stones
DR12      -0.10 dB   -14.68 dB      5:58 08-Waiting for You
DR11      -0.27 dB   -13.19 dB      6:00 09-Porto Sol
DR12      -0.29 dB   -14.15 dB      5:25 10-Now's the Time
DR14      -0.32 dB   -16.20 dB      0:38 11-Space Part Two
DR13      -0.28 dB   -15.77 dB      7:00 12-Savannah
DR13      -0.29 dB   -16.50 dB      6:42 13-Sadness
DR14      -0.65 dB   -18.06 dB      4:36 14-Thanksong
DR12      -0.30 dB   -14.36 dB      1:25 15-Downward
--------------------------------------------------------------------------------

Number of tracks:  15
Official DR value: DR12

Samplerate:        44100 Hz
Channels:          2
Bits per sample:   24
Bitrate:           1594 kbps
Codec:             FLAC
================================================================================
Приватный:
Нет (DHT включён)
Размер:
768.31 Мб (805,631,225 байт) » файлов: 17
Участники:
3 раздают, 0 качают (3 участников всего)
Внешние участники:
--- [ Обновить ]
No seeders - write personal message to M0p94ok. Нет сидеров - пишите в личку M0p94ok.
13:20
122
Нет комментариев. Ваш будет первым!