Поиск

2020 Elina Duni with Rob Luft, Fred Thomas, Matthieu Michel - Lost Ships {ECM} [24-88,2]

2020 Elina Duni with Rob Luft, Fred Thomas, Matthieu Michel - Lost Ships {ECM} [24-88,2]
Дата издания диска:
13 ноября 2020
Издатель (лейбл):
Битрейт аудио:
lossless

Треклист:

01. Bella Ci Dormi (6:56)
02. Brighton (5:41)
03. I’m A Fool To Want You (4:20)
04. Numb (6:23)
05. Lost Ships (5:18)
06. The Wayfaring Stranger (4:50)
07. Flying Kites (4:47)
08. Lux (5:19)
09. Kur Më Del Në Derë (4:05)
10. N’at Zaman (4:26)
11. Empty Street (1:49)
12. Hier Encore (3:46)

Доп. инфо:

Формат записи/Источник записи: [TR24][OF]
Наличие водяных знаков: Нет
Год издания/переиздания диска: 2020
Продолжительность: 00:57:36
Наличие сканов в содержимом раздачи: Буклет PDF
Источник (релизер): highresaudio

Контейнер: FLAC (*.flac)
Тип рипа: tracks
Разрядность: 24/88,2
Формат: PCM
Количество каналов: 2.0

Лог проверки качества
foobar2000 1.1.15 / Dynamic Range Meter 1.1.1
log date: 2020-11-14 18:21:18

--------------------------------------------------------------------------------
Analyzed: Elina Duni / Lost Ships
--------------------------------------------------------------------------------

DR         Peak         RMS     Duration Track
--------------------------------------------------------------------------------
DR13      -0.45 dB   -17.81 dB      6:54 01-Bella Ci Dormi
DR12      -0.39 dB   -15.35 dB      5:41 02-Brighton
DR13      -1.07 dB   -19.20 dB      4:20 03-I’m A Fool To Want You
DR11      -0.75 dB   -15.68 dB      6:22 04-Numb
DR12      -2.89 dB   -21.77 dB      5:17 05-Lost Ships
DR13      -0.78 dB   -19.27 dB      4:52 06-The Wayfaring Stranger
DR11      -0.96 dB   -15.91 dB      4:47 07-Flying Kites
DR12      -2.85 dB   -20.12 dB      5:18 08-Lux
DR12      -0.41 dB   -14.99 dB      4:05 09-Kur Më Del Në Derë
DR13      -2.95 dB   -21.28 dB      4:25 10-N’at Zaman
DR12      -7.13 dB   -22.31 dB      1:49 11-Empty Street
DR14      -4.73 dB   -25.09 dB      3:44 12-Hier Encore
--------------------------------------------------------------------------------

Number of tracks:  12
Official DR value: DR12

Samplerate:        88200 Hz
Channels:          2
Bits per sample:   24
Bitrate:           2238 kbps
Codec:             FLAC
================================================================================
Приватный:
Нет (DHT включён)
Размер:
968.32 Мб (1,015,356,354 байт) » файлов: 17
Участники:
2 раздают, 0 качают (2 участников всего)
Внешние участники:
14 раздают, 4 качают (18 участников всего) [ Обновить ]
No seeders - write personal message to M0p94ok. Нет сидеров - пишите в личку M0p94ok.
23:36
146
Нет комментариев. Ваш будет первым!