Поиск

2020 The Nels Cline Singers - Share the Wealth {Blue Note} [24-96]

2020 The Nels Cline Singers - Share the Wealth {Blue Note} [24-96]
Стили:
Дата издания диска:
13 ноября 2020
Издатель (лейбл):
Битрейт аудио:
lossless

Треклист:

01. Segunda (6:39)
02. Beam/Spiral (8:48)
03. Nightstand (4:24)
04. Stump the Panel (17:19)
05. Headdress (5:24)
06. Princess Phone (5:50)
07. The Pleather Patrol (8:14)
08. Ashcan Treasure (2:34)
09. A Place on the Moon (16:00)
10. Passed Down (4:03)

Доп. инфо:

Формат записи/Источник записи: [TR24][OF]
Наличие водяных знаков: Нет
Год издания/переиздания диска: 2020
Продолжительность: 01:19:15
Наличие сканов в содержимом раздачи: Только обложка альбома

Контейнер: FLAC (*.flac)
Тип рипа: tracks
Разрядность: 24/96
Формат: PCM
Количество каналов: 2.0

Источник (релизер): qobuz

Лог проверки качества
foobar2000 1.6.2 / Dynamic Range Meter 1.1.1
log date: 2020-11-14 20:07:48

--------------------------------------------------------------------------------
Analyzed: The Nels Cline Singers / Share the Wealth
--------------------------------------------------------------------------------

DR         Peak         RMS     Duration Track
--------------------------------------------------------------------------------
DR5       -0.20 dB    -6.61 dB      6:39 01-Segunda
DR5       -0.70 dB    -8.89 dB      8:48 02-Beam/Spiral
DR8       -0.48 dB   -13.22 dB      4:24 03-Nightstand
DR5       -0.20 dB    -8.98 dB     17:19 04-Stump the Panel
DR5       -0.20 dB    -7.43 dB      5:24 05-Headdress
DR4       -0.70 dB    -6.67 dB      5:50 06-Princess Phone
DR6       -0.20 dB    -8.52 dB      8:14 07-The Pleather Patrol
DR13      -0.70 dB   -19.30 dB      2:34 08-Ashcan Treasure
DR5       -0.70 dB    -8.39 dB     16:00 09-A Place on the Moon
DR8       -0.70 dB   -11.29 dB      4:03 10-Passed Down
--------------------------------------------------------------------------------

Number of tracks:  10
Official DR value: DR6

Samplerate:        96000 Hz
Channels:          2
Bits per sample:   24
Bitrate:           2711 kbps
Codec:             FLAC
================================================================================
Приватный:
Нет (DHT включён)
Размер:
1.53 Гб (1,641,276,869 байт) » файлов: 14
Участники:
2 раздают, 1 качают (3 участников всего)
Внешние участники:
19 раздают, 6 качают (25 участников всего) [ Обновить ]
No seeders - write personal message to M0p94ok. Нет сидеров - пишите в личку M0p94ok.
18:53
143
Нет комментариев. Ваш будет первым!