Поиск

2013 Ruth Wilhelmine Meyer & Helge Lien - Memnon Sound Portraits of Ibsen Characters {Ozella OZ044} [24-96]

2013 Ruth Wilhelmine Meyer & Helge Lien - Memnon Sound Portraits of Ibsen Characters {Ozella OZ044} [24-96]
Стили:
Дата записи диска:
20 июня - 21 июня 2012
Место записи:
Pettersens Kolonial Sound Studio, Hønefoss, Norway
Дата издания диска:
16 января 2013
Издатель (лейбл):
Номер по каталогу:
OZ044
Носитель:
WEB
Формат:
PCM
Тип рипа:
tracks+.cue
Контейнер:
APE (*.ape)
Количество каналов:
2.0
Разрядность/ЧД:
24/96
Битрейт аудио:
lossless
Время звучания:
00:37:24
Наличие сканов:
web
Релизёр (источник):
M0p94ok
Доп. инфо:

Mixed on 22 June 2012
Piano: C. Bechstein Grand, C-234
Mastered by Audun Strype at Strype Audio, Oslo, 5 July 2012

"Memnon" строится вокруг столь же простой и поразительной цели: сохранять музыку как можно более чистой. Полагаясь только на голос и фортепиано, Рут Вильгельмин Майер и Хельге Лиен устраняют задержку между моментом творения и эмоциональной реакцией слушателя. В тот момент, когда их музыка выходит в мир, она сразу же воспринимается как материальное физическое ощущение.

Для своего первого совместного релиза дуэт поставил перед собой задачу звукового изображения избранных персонажей норвежского писателя Хенрика Ибсена. Он привел их в самые темные уголки души и в вершины человеческой мысли. В то время как Хельге Лиен очерчивает контуры этих музыкальных психограмм на своем фортепиано четкими черно-белыми мазками, Рут Вильгельмин Майер заполняет основные формы насыщенными цветами. Оба артиста используют свои личные звуковые миры, чтобы заставить этих персонажей сиять как можно ярче. Слушать, как они набирают, выражают, перефразируют и доводят до конца свои идеи, захватывающе, как загадка, а сюжет разворачивается в процессе слушания. Мемнон - впечатляющее свидетельство ошеломляющей мощи и многомерности звука: эти звуковые портреты раскрывают гораздо больше об их объектах, чем слова.

Может ли музыка когда-нибудь стремиться к высшей цели?

Лог проверки качества
foobar2000 1.6.2 / Dynamic Range Meter 1.1.1
log date: 2020-12-29 18:49:27

--------------------------------------------------------------------------------
Analyzed: Dagobert Böhm / Memnon Sound Portraits of Ibsen Characters
--------------------------------------------------------------------------------

DR         Peak         RMS     Duration Track
--------------------------------------------------------------------------------
DR9       -2.40 dB   -17.32 dB      4:03 01-Hedvig (The Wild Duck)
DR8       -2.20 dB   -15.34 dB      5:20 02-Ellida (The Lady from the Sea)
DR7       -1.43 dB   -11.35 dB      4:49 03-Hedda (Hedda Gabler)
DR9       -1.88 dB   -16.87 dB      3:03 04-Memnon I (Peer Gynt)
DR9       -2.06 dB   -14.32 dB      2:25 05-Anitra (Peer Gynt)
DR7       -0.94 dB   -12.89 dB      6:23 06-Peer and the Mountain King (Peer Gynt)
DR8       -2.88 dB   -15.42 dB      4:35 07-Åse (Peer Gynt)
DR11      -1.92 dB   -16.02 dB      1:22 08-Memnon II (Peer Gynt)
DR8       -1.65 dB   -14.35 dB      5:29 09-Nora (A Doll's House)
--------------------------------------------------------------------------------

Number of tracks:  9
Official DR value: DR8

Samplerate:        96000 Hz
Channels:          2
Bits per sample:   24
Bitrate:           2684 kbps
Codec:             FLAC
================================================================================
No seeders - write personal message to M0p94ok. Any questions - support@pro-jazz.com.
Нет сидеров - пишите в личку M0p94ok. Есть вопросы - support@pro-jazz.com
20:14
200
Нет комментариев. Ваш будет первым!