Вы используете незарегистрированную версию компонента "Вкладки"!

Поиск

1960 Lem Winchester Sextet ft. Oliver Nelson - Lem's Beat (2019) {RevOla} [24-44,1]

1960 Lem Winchester Sextet ft. Oliver Nelson - Lem's Beat (2019) {RevOla} [24-44,1]
Стили:
Дата записи диска:
19 апреля 1960
Место записи:
Rudy Van Gelder's Recording Studio, Englewood Cliffs, NJ, USA
Дата переиздания диска:
2 июля 2019
Издатель (лейбл):
Битрейт аудио:
lossless
Доп. инфо:

Формат записи/Источник записи: [TR24][OF]
Издание: Remastered
Год издания/переиздания диска: 1960/2019
Продолжительность: 00:38:54
Наличие сканов в содержимом раздачи: Нет

Контейнер: FLAC (*.flac)
Тип рипа: tracks
Разрядность: 24/44,1
Количество каналов: 2.0

Источник (релизер): Qobuz

Лог проверки качества
foobar2000 1.4.3 / Dynamic Range Meter 1.1.1
log date: 2020-11-06 17:02:37

--------------------------------------------------------------------------------
Analyzed: Lem Winchester Sextet / Lem's Beat
--------------------------------------------------------------------------------

DR         Peak         RMS     Duration Track
--------------------------------------------------------------------------------
DR11      -0.69 dB   -17.04 dB     11:41 01, 01-Eddy's Dilemma (Remastered)
DR13      -1.79 dB   -18.53 dB      8:01 02, 02-Lem & Aide (Remastered)
DR10      -5.97 dB   -20.44 dB      4:11 03, 03-Friendly Persuasion (Remastered)
DR13      -1.91 dB   -18.88 dB      6:53 04, 04-Your Last Chance (Remastered)
DR9       -5.75 dB   -19.32 dB      2:54 05, 05-Lady Day (Remastered)
DR12      -1.09 dB   -17.10 dB      5:18 06, 06-Just Friends (Remastered)
--------------------------------------------------------------------------------

Number of tracks:  6
Official DR value: DR12

Samplerate:        44100 Hz
Channels:          2
Bits per sample:   24
Bitrate:           1639 kbps
Codec:             FLAC
================================================================================
Any questions - support@pro-jazz.com. Есть вопросы - support@pro-jazz.com
23:42
213
Нет комментариев. Ваш будет первым!