Поиск

2019 Rita Payes with Massimo Farao feat. Scott Hamilton - My Ideal {Venus VHGD-335} [DSD64]

2019 Rita Payes with Massimo Farao feat. Scott Hamilton - My Ideal {Venus VHGD-335} [DSD64]
Стили:
Дата издания диска:
16 октября 2019
Издатель (лейбл):
Номер по каталогу:
VHGD-335
Носитель:
SACD
Формат:
DST
Тип рипа:
image+.cue
Контейнер:
FLAC (*.flac)
Количество каналов:
2.0
Разрядность/ЧД:
64 (2,8 MHz/1 Bit)
Битрейт аудио:
lossless
Время звучания:
00:58:12
Наличие сканов:
нет
Страна-производитель диска (релиза):
USA
Релизёр (источник):
M0p94ok
Лог проверки качества
foobar2000 1.6.2 / Dynamic Range Meter 1.1.1
log date: 2020-12-30 13:03:25

--------------------------------------------------------------------------------
Analyzed: RITA PAYЙS witn Massimo Farao' ~ featuring Scott Hamilton / My Ideal
--------------------------------------------------------------------------------

DR         Peak         RMS     Duration Track
--------------------------------------------------------------------------------
DR9       -5.09 dB   -16.56 dB      4:54 01-Inutil Paisagem
DR6       -4.79 dB   -13.97 dB      5:43 02-I'm Old Fashioned
DR10      -5.08 dB   -18.83 dB      5:24 03-Save Your Love For Me
DR8       -4.93 dB   -15.77 dB      6:14 04-I Cover The Waterfront
DR7       -5.07 dB   -14.52 dB      6:26 05-You Go To My Head
DR7       -4.95 dB   -14.43 dB      5:32 06-Gone With The Wind
DR8       -5.11 dB   -17.09 dB      5:55 07-Caminhos Cruzados
DR7       -4.60 dB   -13.33 dB      7:00 08-Cedar's Blues
DR7       -4.88 dB   -13.18 dB      6:12 09-Fungii Mama
DR9       -5.17 dB   -17.73 dB      5:07 10-My Ideal
--------------------------------------------------------------------------------

Number of tracks:  10
Official DR value: DR8

Samplerate:        2822400 Hz / PCM Samplerate: 88200 Hz
Channels:          2
Bits per sample:   1
Bitrate:           5645 kbps
Codec:             DSD64
================================================================================
No seeders - write personal message to M0p94ok. Any questions - support@pro-jazz.com.
Нет сидеров - пишите в личку M0p94ok. Есть вопросы - support@pro-jazz.com
15:04
198
Нет комментариев. Ваш будет первым!