Поиск

2019 Enric Peidro Swingtet - Live at Jazzazza {Snibor} [24-44.1]

2019 Enric Peidro Swingtet - Live at Jazzazza {Snibor} [24-44.1]
Дата записи диска:
7 февраля - 8 февраля 2019
Место записи:
Jazzazza Jazz Club, Murcia, Spain
Дата издания диска:
14 ноября 2019
Битрейт аудио:
lossless

Треклист:

◈ 01 - Globe Trotter (Live) (03:14)
◈ 02 - Sinbad The Sailor (Live) (04:00)
◈ 03 - 1944 Stomp (Live) (04:24)
◈ 04 - Moving With Lester (Live) (03:45)
◈ 05 - Yacht Club Swing (Live) (04:40)
◈ 06 - The King (Live) (08:36)
◈ 07 - Outer Drive (Live) (05:33)
◈ 08 - Swingin' The Blues (Live) (05:02)
◈ 09 - Victory Stride (Live) (03:58)
◈ 10 - Krazy Kapers (Live) (04:01)
◈ 11 - Early Session Hop (Live) (03:56)

Доп. инфо:

Четвертый компакт-диск группы Swingtet под управлением испанского тенориста Энрика Пейдро.
Этот новый альбом был записан вживую в течение двух вечеров (7 и 8 февраля 2019 г.) в Jazzazza Jazz Club, известном джазовом заведении в Мерсии (Испания), и запечатлел Swingtet в живой обстановке, демонстрируя всю энергию, на которую способна эта группа. показывать в своих выступлениях вместе с его обычным элегантным, стильным подходом: два качества, которые сделали эту группу очень популярной среди поклонников свинга и мейнстрима, а также танцоров линди хопа и бальбоа по всей Европе. Обычно секстет, Swingtet был преобразован в группу из восьми человек для этой записи, с добавлением гитариста из Нью-Йорка и лидера биг-бэнда Гленна Критцера (который во время записи гастролировал по Испании с группой Пейдро). как альт Саймон Тейлор.

В примечаниях к компакт-диску один из самых известных джазовых критиков в Испании (Марио Бенсо) указывает на компромисс саксофона в создании настоящей, аутентичной музыки мейнстрима / свинга, всегда пытающейся быть творческой и творческой, избегая простого имитации музыки. Он восхищается великими музыкантами прошлого:

«Live At Jazzazza собирает исключительные работы горстки музыкантов, обладающих огромным талантом, которые способны придать правдивость всему, что они играют. И, пока кто-то не докажет обратное, в этом и заключается смысл джаза, больше, чем любые стилистические дискуссии или дебаты: о определять свою собственную правду в том, что вы играете. Ни больше, ни меньше » (примечания Марио Бенсо / Live at Jazzazza Liner)

Лог проверки качества
foobar2000 1.4.2 / Dynamic Range Meter 1.1.1
log date: 2021-03-14 21:42:37

--------------------------------------------------------------------------------
Analyzed: Enric Peidro Swingtet / Live at Jazzazza
--------------------------------------------------------------------------------

DR         Peak         RMS     Duration Track
--------------------------------------------------------------------------------
DR11      -0.20 dB   -13.48 dB      3:15 01-Globe Trotter (Live)
DR11      -1.00 dB   -13.72 dB      4:01 02-Sinbad the Sailor (Live)
DR10      -1.00 dB   -13.08 dB      4:24 03-1944 Stomp (Live)
DR11      -1.00 dB   -13.79 dB      3:45 04-Moving with Lester (Live)
DR10      -1.00 dB   -13.22 dB      4:40 05-Yacht Club Swing (Live)
DR10      -1.00 dB   -13.28 dB      8:36 06-The King (Live)
DR10      -1.00 dB   -13.88 dB      5:34 07-Outer Drive (Live)
DR10      -1.00 dB   -13.54 dB      5:03 08-SwinginВґ the Blues (Live)
DR11      -1.00 dB   -13.80 dB      3:58 09-Victory Stride (Live)
DR11      -1.00 dB   -13.66 dB      4:02 10-Krazy Kapers (Live)
DR11      -0.92 dB   -13.55 dB      3:57 11-Early Session Hop (Live)
--------------------------------------------------------------------------------

Number of tracks:  11
Official DR value: DR11

Samplerate:        44100 Hz
Channels:          2
Bits per sample:   24
Bitrate:           1570 kbps
Codec:             FLAC
================================================================================
Приватный:
Нет (DHT включён)
Размер:
575.29 Мб (603,230,773 байт) » файлов: 12
Участники:
0 раздают, 0 качают (0 участников всего)
Внешние участники:
3 раздают, 1 качают (4 участников всего) [ Обновить ]
No seeders - write personal message to M0p94ok. Any questions - support@pro-jazz.com.
Нет сидеров - пишите в личку M0p94ok. Есть вопросы - support@pro-jazz.com
22:24
38
Нет комментариев. Ваш будет первым!