Поиск

2019 Hammond Express - Vertigo Bossa {Irma La Douce} [24-44.1]

2019 Hammond Express - Vertigo Bossa {Irma La Douce} [24-44.1]
Стили:
Носитель:
WEB
Формат:
PCM
Тип рипа:
tracks
Контейнер:
FLAC (*.flac)
Количество каналов:
2.0
Разрядность/ЧД:
24/44,1
Битрейт аудио:
lossless
Время звучания:
00:45:43
Наличие сканов:
только обложка
Наличие водяных знаков:
нет
Страна-производитель диска (релиза):
Italy
Релизёр (источник):
M0p94ok
Треклист:

01 - Harvest Lounge  7:03
02 - Vertigo Bossa  5:27
03 - Chrysalis  6:54
04 - Jazz and Charisma  5:15
05 - Dawn Pye  5:48
06 - Chilling in Atco  4:56
07 - Esoterico  5:21
08 - Manticore Avenue  5:00

Доп. инфо:

Как и в триллере Хичкока 1958 года «Головокружение», «Хаммонд Экспресс» подталкивает босанову и легкое прослушивание к головокружению. уровни с винтажными звуками, смешанными в оркестровой среде написания партитуры. Ведь это ядро стиль проекта под руководством итальянского клавишника и композитора Франческо Газзара с дебютного альбома RendezVous (2003) и наполненный душой следующий альбом Another Steppin ’Soul (2011). Орган Hammond - модель B3 с Лесли 760, оба тоже построены в 1958 году - здесь, безусловно, примадонна, но без имитации какого-либо великого джаз / фанк органиста прошлого. Vertigo Bossa - это действительно альбом кинематографических ощущений больше, чем собрание стереотипных соло и риффов. Призрачное открытие («Зал урожая») приводит нас к симфоническому звучанию в стиле Генри Манчини 70-х, а заглавный трек исследует латинские и психоделические мотивы. Современный соул грув «Chrysalis» готовит элегантный лаунж «Jazz And Charisma» перед урбанистическим и гламурным в стиле Sex And The City - вступает «Esoterico». Хаммонд звучит как смесь джаза и фолка / прога - в каждом треке альбома есть отсылка к названию некоторых славных британских лейблов 70-х - в то время как все акустические гитары, Fender Rhodes, перкуссия и электрический бас (Массимо Санна) рисуют иную картину, на которую легкое влияние оказали такие бразильские артисты, как Азимут и Серджио Мендес. Все на борту, конвой Hammond Express готов к отправлению на платформу groovy-lounge!

https://www.qobuz.com/fi-en/album/vertigo-bossa-hammond-express/qc69zrx3guh8b

Лог проверки качества
foobar2000 1.6.2 / Dynamic Range Meter 1.1.1
log date: 2021-05-28 09:28:33

--------------------------------------------------------------------------------
Analyzed: Hammond Express / Vertigo Bossa
--------------------------------------------------------------------------------

DR         Peak         RMS     Duration Track
--------------------------------------------------------------------------------
DR10      -0.30 dB   -12.07 dB      7:03 01-Harvest Lounge
DR11      -0.30 dB   -12.74 dB      5:27 02-Vertigo Bossa
DR9       -0.30 dB   -12.27 dB      6:54 03-Chrysalis
DR8       -0.30 dB   -10.24 dB      5:15 04-Jazz and Charisma
DR10      -0.30 dB   -12.90 dB      5:48 05-Dawn Pye
DR10      -0.30 dB   -12.89 dB      4:56 06-Chilling in Atco
DR11      -0.30 dB   -12.96 dB      5:21 07-Esoterico
DR8       -0.30 dB   -10.52 dB      5:00 08-Manticore Avenue
--------------------------------------------------------------------------------

Number of tracks:  8
Official DR value: DR10

Samplerate:        44100 Hz
Channels:          2
Bits per sample:   24
Bitrate:           1698 kbps
Codec:             FLAC
================================================================================
Приватный:
Да (DHT отключён)
Размер:
525.05 Мб (550,555,505 байт) » файлов: 11
Участники:
1 раздают, 0 качают (1 участников всего)
Внешние участники:
--- [ Обновить ]
No seeders - write personal message to M0p94ok. Any questions - support@pro-jazz.com.
Нет сидеров - пишите в личку M0p94ok. Есть вопросы - support@pro-jazz.com
10:12
42
Нет комментариев. Ваш будет первым!