Поиск

2020 Enric Peidro Quartet - Until the Real Thing Comes Along {Snibor} [24-44.1]

2020 Enric Peidro Quartet - Until the Real Thing Comes Along {Snibor} [24-44.1]
Стили:
Дата записи диска:
26 октября 2020
Место записи:
SP Studios
Дата издания диска:
26 ноября 2020
Дата переиздания диска:
12 марта 2021
Битрейт аудио:
lossless

Треклист:

◈ 01 - (Was I To Blame For) Falling In Love With You (00:06:44)
◈ 02 - Nel Blue Di Pinto Di Blu (00:06:49)
◈ 03 - Until The Real Thing Comes Along (00:04:58)
◈ 04 - No One (00:06:47)
◈ 05 - Get Happy (00:05:50)
◈ 06 - I Guess I'll Have To Dream The Rest (00:04:53)
◈ 07 - The Moon Was Yellow (00:07:11)
◈ 08 - Again And Again (00:04:59)
◈ 09 - Now I Lay Me Down To Dream Of You (00:06:17)
◈ 10 - Gator Whale (00:04:32)

Доп. инфо:

• Формат записи | Источник записи: [TR24][OF]
• Наличие водяных знаков: Нет
• Год издания релиза: 2021
• Лейбл: Snibor Records
• Продолжительность: 00:59:03
• Источник: internet
• WEB релиз: ссылка
• Контейнер: FLAC (*.flac)
• Тип рипа: tracks
• Разрядность: 24/44,1
• Формат: PCM
• Количество каналов: 2.0
• Наличие сканов: front

Музыкант-самоучка, Пейдро начал играть на теноре в четырнадцать лет. Через пару лет он играл в нескольких блюзовых и ритм-энд-блюзовых коллективах. Его интерес к джазу быстро развился, и с тех пор Пейдро остался верен своим музыкальным героям: таким джазовым мастерам, как Леон «Чу» Берри, Бен Вебстер, Дон Байас, Коулман Хокинс, Бенни Картер, Джонни Ходжес, Лестер Янг, а также некоторые из их музыкантов. ученики, такие как Иллинойс Жаке, Арнетт Кобб, Пол Гонсалвес, Флип Филлипс, Джимми Форрест, Бадди Тейт и т. д.

Лог проверки качества
foobar2000 1.4.2 / Dynamic Range Meter 1.1.1
log date: 2021-03-14 21:42:09

--------------------------------------------------------------------------------
Analyzed: Enric Peidro Quartet / Until the Real Thing Comes Along
--------------------------------------------------------------------------------

DR         Peak         RMS     Duration Track
--------------------------------------------------------------------------------
DR10      -1.02 dB   -12.60 dB      6:44 01-(Was I to Blame for) Falling in Love With You
DR11      -1.03 dB   -13.52 dB      6:49 02-Nel Blue Di Pinto Di Blu
DR11      -0.23 dB   -13.68 dB      4:59 03-Until the Real Thing Comes Along
DR10      -1.02 dB   -12.62 dB      6:47 04-No One
DR10      -1.02 dB   -12.70 dB      5:50 05-Get Happy
DR11      -1.02 dB   -13.15 dB      4:53 06-I Guess I'll Have to Dream the Rest
DR11      -1.00 dB   -13.62 dB      7:12 07-The Moon Was Yellow
DR11      -1.02 dB   -13.93 dB      4:59 08-Again and Again
DR10      -1.02 dB   -13.48 dB      6:18 09-Now I Lay Me Down to Dream of You
DR11      -1.02 dB   -13.72 dB      4:32 10-Gator Whale
--------------------------------------------------------------------------------

Number of tracks:  10
Official DR value: DR11

Samplerate:        44100 Hz
Channels:          2
Bits per sample:   24
Bitrate:           1612 kbps
Codec:             FLAC
================================================================================
Приватный:
Нет (DHT включён)
Размер:
638.56 Мб (669,577,254 байт) » файлов: 11
Участники:
0 раздают, 0 качают (0 участников всего)
Внешние участники:
--- [ Обновить ]
No seeders - write personal message to M0p94ok. Нет сидеров - пишите в личку M0p94ok.
11:19
33
Нет комментариев. Ваш будет первым!