Вы используете незарегистрированную версию компонента "Вкладки"!

Поиск

2007 Ibrahim Maalouf - Diasporas {Mi'ster} [24-44.1]

2007 Ibrahim Maalouf - Diasporas {Mi'ster} [24-44.1]
Место записи:
Ndu, University Of Zouk; Sono Sapiens; Chez Sons Franck, Montréal, Canada;
Дата издания диска:
10 октября 2007
Номер по каталогу:
IBM1
Носитель:
WEB
Формат:
PCM
Тип рипа:
tracks
Контейнер:
FLAC (*.flac)
Количество каналов:
2.0
Разрядность/ЧД:
24/44,1
Битрейт аудио:
lossless
Время звучания:
00:45:52
Наличие сканов:
буклет pdf
Страна-производитель диска (релиза):
France
Релизёр (источник):
M0p94ok
Лог проверки качества
foobar2000 1.6.2 / Dynamic Range Meter 1.1.1
log date: 2021-05-28 12:01:20

--------------------------------------------------------------------------------
Analyzed: Ibrahim Maalouf / Diasporas
--------------------------------------------------------------------------------

DR         Peak         RMS     Duration Track
--------------------------------------------------------------------------------
DR12      -9.95 dB   -31.00 dB      0:39 01-Intro
DR9       -0.11 dB   -12.04 dB      4:05 02-Diaspora
DR13      -6.68 dB   -22.93 dB      2:05 03-Kanoun Improvisation
DR10      -0.19 dB   -14.10 dB      4:52 04-Hashish
DR9       -0.24 dB   -13.98 dB      4:04 05-Missin'ya (Night in Tunisia)
DR13      -7.29 dB   -23.66 dB      1:47 06-Oud Improvisation
DR11      -0.23 dB   -14.05 dB      5:00 07-Shadows
DR10      -0.21 dB   -11.67 dB      4:51 08-Verdict
DR9       -0.25 dB   -13.47 dB      5:33 09-Last Wishes
DR10      -5.19 dB   -20.89 dB      2:10 10-Trumpet Improvisation
DR11      -0.25 dB   -16.58 dB     10:48 11-1925
--------------------------------------------------------------------------------

Number of tracks:  11
Official DR value: DR11

Samplerate:        44100 Hz
Channels:          2
Bits per sample:   24
Bitrate:           1233 kbps
Codec:             FLAC
================================================================================
Any questions - support@pro-jazz.com. Есть вопросы - support@pro-jazz.com
12:47
106
Нет комментариев. Ваш будет первым!