Поиск

2021 Erlend Apneseth Trio - Lokk {Hubro} [24-48]

2021 Erlend Apneseth Trio - Lokk {Hubro} [24-48]
Дата издания диска:
12 марта 2021
Битрейт аудио:
lossless
Время звучания:
00:36:43

Треклист:

1. Erindring  00:42
2. Impedans  04:24
3. Slekter  05:04
4. Linjer  03:58
5. Fuglane  03:24
6. Springar  05:38
7. Vake  01:00
8. Lokk  03:36
9. Skimmer  08:52

Доп. инфо:

• Формат записи | Источник записи: [TR24][OF]
• Наличие водяных знаков: Нет
• Лейбл: Hubro
• Продолжительность: 00:36:43
• Источник: internet
• WEB релиз: ссылка
• Контейнер: FLAC (*.flac)
• Тип рипа: tracks
• Разрядность: 24/48
• Формат: PCM
• Количество каналов: 2.0
• Наличие сканов: front

Лог проверки качества
foobar2000 1.4.2 / Dynamic Range Meter 1.1.1
log date: 2021-03-14 21:43:13

--------------------------------------------------------------------------------
Analyzed: Erlend Apneseth Trio / Lokk
--------------------------------------------------------------------------------

DR         Peak         RMS     Duration Track
--------------------------------------------------------------------------------
DR8       -0.50 dB   -11.13 dB      0:43 01-Erindring
DR6       -0.50 dB    -7.71 dB      4:25 02-Impedans
DR5       -0.50 dB    -8.29 dB      5:04 03-Slekter
DR7       -0.50 dB   -10.24 dB      3:59 04-Linjer
DR10      -1.13 dB   -17.99 dB      3:25 05-Fuglane
DR6       -0.50 dB    -9.00 dB      5:39 06-Springar
DR8       -2.27 dB   -13.25 dB      1:01 07-Vake
DR7       -0.50 dB    -9.38 dB      3:37 08-Lokk
DR11      -2.00 dB   -18.56 dB      8:52 09-Skimmer
--------------------------------------------------------------------------------

Number of tracks:  9
Official DR value: DR8

Samplerate:        48000 Hz
Channels:          2
Bits per sample:   24
Bitrate:           1386 kbps
Codec:             FLAC
================================================================================
Приватный:
Нет (DHT включён)
Размер:
412.54 Мб (432,580,929 байт) » файлов: 10
Участники:
0 раздают, 0 качают (0 участников всего)
Внешние участники:
5 раздают, 1 качают (6 участников всего) [ Обновить ]
No seeders - write personal message to M0p94ok. Any questions - support@pro-jazz.com.
Нет сидеров - пишите в личку M0p94ok. Есть вопросы - support@pro-jazz.com
15:54
58
Нет комментариев. Ваш будет первым!