Поиск

2019 Jacob Karlzon - Open Waters {WM Germany} [24-96]

2019 Jacob Karlzon - Open Waters {WM Germany} [24-96]
Стили:
Дата издания диска:
30 августа 2019
Издатель (лейбл):
Номер по каталогу:
0190295457259
Носитель:
WEB
Формат:
PCM
Тип рипа:
tracks
Контейнер:
FLAC (*.flac)
Количество каналов:
2.0
Разрядность/ЧД:
24/96
Битрейт аудио:
lossless
Время звучания:
00:47:52
Наличие сканов:
только обложка
Страна-производитель диска (релиза):
Germany
Релизёр (источник):
M0p94ok
Лог проверки качества
foobar2000 1.6.2 / Dynamic Range Meter 1.1.1
log date: 2021-05-29 11:12:55

--------------------------------------------------------------------------------
Analyzed: Jacob Karlzon / Open Waters
--------------------------------------------------------------------------------

DR         Peak         RMS     Duration Track
--------------------------------------------------------------------------------
DR11      -1.00 dB   -16.95 dB      5:06 01-Open Waters
DR10      -1.00 dB   -14.10 dB      6:53 02-Secret Rooms
DR7       -1.00 dB    -9.67 dB      3:54 03-Motion Picture
DR8       -1.00 dB    -9.84 dB      6:16 04-Slave to Grace
DR12      -1.00 dB   -16.24 dB      5:54 05-Ever Changing
DR8       -1.00 dB   -10.45 dB      5:30 06-Look What You Made Me Do
DR11      -1.00 dB   -14.75 dB      5:02 07-How It Ends
DR8       -1.00 dB   -12.43 dB      5:35 08-Panorama
DR14      -4.41 dB   -23.89 dB      3:45 09-Note to Self
--------------------------------------------------------------------------------

Number of tracks:  9
Official DR value: DR10

Samplerate:        96000 Hz
Channels:          2
Bits per sample:   24
Bitrate:           2150 kbps
Codec:             FLAC
================================================================================
No seeders - write personal message to M0p94ok. Any questions - support@pro-jazz.com.
Нет сидеров - пишите в личку M0p94ok. Есть вопросы - support@pro-jazz.com
12:21
81
Нет комментариев. Ваш будет первым!