Вы используете незарегистрированную версию компонента "Вкладки"!

Поиск

2021 Dan Blake - Da Fé {Sunnyside} [24-96]

2021 Dan Blake - Da Fé {Sunnyside} [24-96]
Дата издания диска:
12 марта 2021
Издатель (лейбл):
Битрейт аудио:
lossless
Лог проверки качества
foobar2000 1.4.2 / Dynamic Range Meter 1.1.1
log date: 2021-03-15 09:42:07

--------------------------------------------------------------------------------
Analyzed: Dan Blake / Da FГ©
--------------------------------------------------------------------------------

DR         Peak         RMS     Duration Track
--------------------------------------------------------------------------------
DR10      -8.39 dB   -23.23 dB      3:05 01-Prologue: A New Normal
DR12      -1.06 dB   -15.92 dB      7:20 02-Cry Of The East
DR12      -0.10 dB   -16.51 dB      6:00 03-Like Fish In Puddles
DR12      -0.78 dB   -16.38 dB      5:43 04-Pain
DR14      -0.10 dB   -15.83 dB      6:25 05-The Grifter
DR13      -0.10 dB   -15.35 dB      7:09 06-The Cliff
DR11      -1.28 dB   -14.44 dB      2:59 07-Doctor Armchair
DR10      -2.41 dB   -15.58 dB      6:32 08-Da FГ©
DR13      -0.10 dB   -15.36 dB      4:15 09-Epilogue: It Heals Itself
--------------------------------------------------------------------------------

Number of tracks:  9
Official DR value: DR12

Samplerate:        96000 Hz
Channels:          2
Bits per sample:   24
Bitrate:           2903 kbps
Codec:             FLAC
================================================================================
Any questions - support@pro-jazz.com. Есть вопросы - support@pro-jazz.com
12:55
124
Нет комментариев. Ваш будет первым!