Поиск

2017 Karolina Śmietana - Illusion {RecArt} [24-88.2]

2017 Karolina Śmietana - Illusion {RecArt} [24-88.2]
Стили:
Дата издания диска:
7 апреля 2017
Носитель:
WEB
Формат:
PCM
Тип рипа:
tracks
Контейнер:
FLAC (*.flac)
Количество каналов:
2.0
Разрядность/ЧД:
24/88,2
Битрейт аудио:
lossless
Время звучания:
00:43:17
Наличие сканов:
только обложка
Страна-производитель диска (релиза):
Poland
Релизёр (источник):
M0p94ok
Лог проверки качества
foobar2000 1.6.2 / Dynamic Range Meter 1.1.1
log date: 2021-05-29 14:42:50

--------------------------------------------------------------------------------
Analyzed: Karolina Śmietana / Illusion
--------------------------------------------------------------------------------

DR         Peak         RMS     Duration Track
--------------------------------------------------------------------------------
DR10      -0.25 dB   -13.70 dB      5:33 01-Something
DR9       -0.17 dB   -11.71 dB      4:46 02-Skylark
DR10      -0.24 dB   -12.66 dB      3:27 03-Within
DR12      -0.25 dB   -15.09 dB      3:26 04-É preciso perdoar
DR11      -0.76 dB   -16.44 dB      4:35 05-Jestem za blisko
DR9       -0.20 dB   -11.93 dB      3:42 06-The Beauty of Mind
DR8       -0.24 dB   -11.27 dB      5:22 07-I Am a Sunshine
DR8       -0.25 dB   -10.64 dB      6:55 08-Orange Moon
DR10      -0.25 dB   -13.91 dB      5:38 09-The Ego Thing
--------------------------------------------------------------------------------

Number of tracks:  9
Official DR value: DR10

Samplerate:        88200 Hz
Channels:          2
Bits per sample:   24
Bitrate:           2741 kbps
Codec:             FLAC
================================================================================
No seeders - write personal message to M0p94ok. Any questions - support@pro-jazz.com.
Нет сидеров - пишите в личку M0p94ok. Есть вопросы - support@pro-jazz.com
14:54
67
Нет комментариев. Ваш будет первым!