Поиск

2019 Andreas Lammel, Florian Lauer, Rene Bornstein - Field {Traumton} [24-44.1]

2019 Andreas Lammel, Florian Lauer, Rene Bornstein - Field {Traumton} [24-44.1]
Стили:
Дата записи диска:
1 декабря 2018
Место записи:
Traumton Studios, Berlin, Germany
Дата издания диска:
4 октября 2019
Номер по каталогу:
4682
Носитель:
WEB
Формат:
PCM
Тип рипа:
tracks
Контейнер:
FLAC (*.flac)
Количество каналов:
2.0
Разрядность/ЧД:
24/44,1
Битрейт аудио:
lossless
Время звучания:
00:56:19
Наличие сканов:
только обложка
Страна-производитель диска (релиза):
Germany
Релизёр (источник):
M0p94ok
Лог проверки качества
foobar2000 1.6.2 / Dynamic Range Meter 1.1.1
log date: 2021-05-30 18:01:32

--------------------------------------------------------------------------------
Analyzed: Lammel - Lauer - Bornstein / Field
--------------------------------------------------------------------------------

DR         Peak         RMS     Duration Track
--------------------------------------------------------------------------------
DR9       -0.50 dB   -12.90 dB      5:05 01-Dear Robert
DR9       -0.50 dB   -13.06 dB      5:49 02-Es krankt
DR10      -0.50 dB   -12.84 dB      4:38 03-Buon Giorno
DR10      -0.50 dB   -15.66 dB      5:42 04-Approach and Bond
DR9       -0.50 dB   -13.86 dB      4:16 05-Last Kiss
DR9       -0.50 dB   -13.93 dB     10:22 06-Sinfonia
DR10      -0.50 dB   -15.03 dB      3:53 07-Minjung
DR11      -0.50 dB   -14.48 dB      4:31 08-Next Time I Will
DR11      -0.50 dB   -16.11 dB      4:54 09-Goodnight My Dear
DR9       -0.50 dB   -13.64 dB      3:38 10-Tau
DR10      -0.50 dB   -14.10 dB      3:37 11-Valse la mineur
--------------------------------------------------------------------------------

Number of tracks:  11
Official DR value: DR10

Samplerate:        44100 Hz
Channels:          2
Bits per sample:   24
Bitrate:           1491 kbps
Codec:             FLAC
================================================================================
No seeders - write personal message to M0p94ok. Any questions - support@pro-jazz.com.
Нет сидеров - пишите в личку M0p94ok. Есть вопросы - support@pro-jazz.com
23:40
59
Нет комментариев. Ваш будет первым!