Поиск

1977 Charles Mingus - The Music of Mingus '77 (2017) {High Fidelity Masters} [24-96]

1977 Charles Mingus - The Music of Mingus '77 (2017) {High Fidelity Masters} [24-96]
Стили:
Дата записи диска:
16 ноября 1977
Место записи:
Studio 21, New York City, NY, USA
Битрейт аудио:
lossless
Доп. инфо:

Формат записи/Источник записи: [TR24][OF]
Издание: Remastered
Год издания/переиздания диска: 1977/2017
Издатель (лейбл): High Fidelity Masters
Продолжительность: 00:52:13
Наличие сканов в содержимом раздачи: Нет

Контейнер: FLAC (*.flac)
Тип рипа: tracks
Разрядность: 24/96
Количество каналов: 2.0

Источник (релизер): HIGHRESAUDIO

Лог проверки качества
foobar2000 1.4.3 / Dynamic Range Meter 1.1.1
log date: 2021-03-05 07:02:14

--------------------------------------------------------------------------------
Analyzed: Charles Mingus / The Music of Mingus '77 (Remastered)
--------------------------------------------------------------------------------

DR         Peak         RMS     Duration Track
--------------------------------------------------------------------------------
DR8       -0.03 dB    -9.69 dB      5:19 01-Peggy's Blue Skylight
DR8       -0.03 dB    -9.19 dB      6:14 02-Fables of Faubus
DR9       -0.03 dB   -11.19 dB      6:19 03-Caroline Keikki Mingus
DR7       -0.03 dB    -8.73 dB      5:08 04-Slop
DR8       -0.03 dB    -9.62 dB      4:36 05-So Long Eric
DR8       -0.03 dB   -10.30 dB      6:01 06-Farewell, Farewell
DR7       -0.03 dB    -8.42 dB      4:29 07-Just for Laughs, Pt. 1
DR6       -0.03 dB    -7.58 dB      5:35 08-It Might as Well Be Spring
DR7       -0.03 dB    -9.99 dB      5:57 09-Duke Ellington's Sound of Love
DR6       -0.03 dB    -9.02 dB      2:35 10-Just for Laughs, Pt. 2
--------------------------------------------------------------------------------

Number of tracks:  10
Official DR value: DR7

Samplerate:        96000 Hz
Channels:          2
Bits per sample:   24
Bitrate:           2722 kbps
Codec:             FLAC
================================================================================
No seeders - write personal message to M0p94ok. Any questions - support@pro-jazz.com.
Нет сидеров - пишите в личку M0p94ok. Есть вопросы - support@pro-jazz.com
23:55
75
Нет комментариев. Ваш будет первым!