Поиск

2021 Iiris Tarnanen - The Day I Was Born {Eclipse Music, Supersounds Music Oy} [24-44.1]

2021 Iiris Tarnanen - The Day I Was Born {Eclipse Music, Supersounds Music Oy} [24-44.1]
Дата записи диска:
21 мая 2019 - осень 2020
Место записи:
Helsinki Music Center studio
Дата издания диска:
5 марта 2021
Битрейт аудио:
lossless
Лог проверки качества
foobar2000 1.4.2 / Dynamic Range Meter 1.1.1
log date: 2021-03-14 21:44:42

--------------------------------------------------------------------------------
Analyzed: Iiris Tarnanen / The Day I Was Born
--------------------------------------------------------------------------------

DR         Peak         RMS     Duration Track
--------------------------------------------------------------------------------
DR9       -1.00 dB   -12.15 dB      3:40 01-Sinä kaunis riemastuttava tyttö
DR10      -1.00 dB   -13.58 dB      3:26 02-The Flag
DR10      -1.00 dB   -13.84 dB      4:36 03-Villit veet
DR9       -1.00 dB   -13.62 dB      6:50 04-Armaani mun vierahalla maalla
DR9       -1.00 dB   -13.83 dB      2:48 05-Demon Inside Me
DR9       -1.00 dB   -12.60 dB      3:36 06-Devil's Dance
DR9       -1.00 dB   -12.37 dB      4:01 07-In the Lap of Love
DR9       -1.00 dB   -13.58 dB      4:03 08-Syklinen aika
DR11      -1.00 dB   -14.26 dB      4:25 09-My Decision
DR10      -1.00 dB   -12.87 dB      3:54 10-Tiptoe Secrets Reveal
--------------------------------------------------------------------------------

Number of tracks:  10
Official DR value: DR10

Samplerate:        44100 Hz
Channels:          2
Bits per sample:   24
Bitrate:           1482 kbps
Codec:             FLAC
================================================================================
No seeders - write personal message to M0p94ok. Any questions - support@pro-jazz.com.
Нет сидеров - пишите в личку M0p94ok. Есть вопросы - support@pro-jazz.com
16:21
85
Нет комментариев. Ваш будет первым!