Поиск

1984 Makoto Terashita meets Harold Land - Topology (2019) {BBE Music} [24-44.1]

1984 Makoto Terashita meets Harold Land - Topology (2019) {BBE Music} [24-44.1]
Стили:
Дата записи диска:
11 июня 1984
Место записи:
Victor Aoyama Studio
Дата переиздания диска:
13 сентября 2019
Номер по каталогу:
BBE504
Носитель:
WEB
Формат:
PCM
Тип рипа:
tracks
Контейнер:
FLAC (*.flac)
Количество каналов:
2.0
Разрядность/ЧД:
24/44,1
Битрейт аудио:
lossless
Время звучания:
00:47:13
Наличие сканов:
только обложка
Наличие водяных знаков:
нет
Страна-производитель диска (релиза):
Japan
Релизёр (источник):
M0p94ok

Треклист:

1. Dragon Dance  12:32
2. World Peace  07:46
3. Dear Friends  03:56
4. Takeuma  07:49
5. I-Ha-To-Bo  06:15
6. Crossing  08:52

Лог проверки качества
foobar2000 1.6.2 / Dynamic Range Meter 1.1.1
log date: 2021-05-31 16:36:19

--------------------------------------------------------------------------------
Analyzed: Makoto Terashita meets Harold Land / Topology
--------------------------------------------------------------------------------

DR         Peak         RMS     Duration Track
--------------------------------------------------------------------------------
DR10      -0.75 dB   -15.01 dB     12:33 01-Dragon Dance
DR13      -0.16 dB   -18.14 dB      7:47 02-World Peace
DR17      -0.52 dB   -21.33 dB      3:57 03-Dear Friends
DR13      -0.16 dB   -17.15 dB      7:49 04-Takeuma
DR14      -0.16 dB   -18.40 dB      6:16 05-I-Ha-To-Bo
DR12      -1.01 dB   -15.69 dB      8:52 06-Crossing
--------------------------------------------------------------------------------

Number of tracks:  6
Official DR value: DR13

Samplerate:        44100 Hz
Channels:          2
Bits per sample:   24
Bitrate:           1576 kbps
Codec:             FLAC
================================================================================
Приватный:
Да (DHT отключён)
Размер:
515.57 Мб (540,615,691 байт) » файлов: 9
Участники:
1 раздают, 0 качают (1 участников всего)
Внешние участники:
--- [ Обновить ]
No seeders - write personal message to M0p94ok. Any questions - support@pro-jazz.com.
Нет сидеров - пишите в личку M0p94ok. Есть вопросы - support@pro-jazz.com
16:45
50
Нет комментариев. Ваш будет первым!