Поиск

2021 Jana Herzen - Live {Motema} [24-48]

2021 Jana Herzen - Live {Motema} [24-48]
Дата издания диска:
12 марта 2021
Издатель (лейбл):
Битрейт аудио:
lossless
Доп. инфо:

• Формат записи | Источник записи: [TR24][OF]
• Наличие водяных знаков: Нет
• Год издания релиза: 2021
• Продолжительность: 00:56:18
• Источник: internet
• WEB релиз: ссылка
• Контейнер: FLAC (*.flac)
• Тип рипа: tracks
• Разрядность: 24/48
• Формат: PCM
• Количество каналов: 2.0
• Наличие сканов: front

Jana Herzen Band: Live: для фанатов джаза / фолка / поп-кроссовера, жаждущих радостного общения живых выступлений, заблокированных COVID-19, эта аудиофильская запись победного концерта Яны Герцен в Joe's Pub в Нью-Йорке в октябре 2019 года. , предлагает освежающий опыт. Праздничное представление включает в себя магнетический вокал и гитару Герцена в импровизации с джаз-бэндом со всемирно известными ветеранами Чарнеттом Моффеттом (безладовый электробас) и Брайаном Джексоном (фортепиано и клавиши) и восходящим артистом Ирвином Холлом (тростники и деревянные духовые инструменты) и Кори Гарсия (ударные). Присутствие восторженной и все более очарованной аудитории помогает поднять представление на более высокие уровни и делает это особенно трогательным для сердца слушанием в это трудное и беспрецедентное время в истории.

Лог проверки качества
foobar2000 1.4.2 / Dynamic Range Meter 1.1.1
log date: 2021-03-15 09:43:43

--------------------------------------------------------------------------------
Analyzed: Jana Herzen / Live
--------------------------------------------------------------------------------

DR         Peak         RMS     Duration Track
--------------------------------------------------------------------------------
DR8        0.00 dB   -10.55 dB      4:11 01-Nothing But Love (Live)
DR7       -0.50 dB    -9.80 dB      5:52 02-Speak (Live)
DR7        0.00 dB    -9.19 dB      4:18 03-On The Outside (Live)
DR8       -0.50 dB   -10.18 dB      5:31 04-My Latin Love (Live)
DR8       -0.50 dB   -10.23 dB      5:49 05-Night Blooming Jasmine (Live)
DR8       -0.34 dB   -10.83 dB      4:43 06-With An Open Heart (Live)
DR8       -0.44 dB   -10.14 dB      3:20 07-Lightening The Load (Live)
DR10      -0.50 dB   -12.42 dB      4:43 08-Like A River (Live)
DR9       -0.47 dB   -11.70 dB      5:09 09-Thinking Of You (Live)
DR9       -0.50 dB   -12.04 dB      6:16 10-Precious Air (Live)
DR9       -0.50 dB   -11.92 dB      6:28 11-In The Name Of Love (Live)
--------------------------------------------------------------------------------

Number of tracks:  11
Official DR value: DR8

Samplerate:        48000 Hz
Channels:          2
Bits per sample:   24
Bitrate:           1630 kbps
Codec:             FLAC
================================================================================
No seeders - write personal message to M0p94ok. Any questions - support@pro-jazz.com.
Нет сидеров - пишите в личку M0p94ok. Есть вопросы - support@pro-jazz.com
17:52
93
Нет комментариев. Ваш будет первым!