Поиск

2021 Kjetil Mulelid - Piano {Rune Grammofon} [24-96]

2021 Kjetil Mulelid - Piano {Rune Grammofon} [24-96]
Дата издания диска:
12 марта 2021
Битрейт аудио:
lossless
Доп. инфо:

• Формат записи | Источник записи: [TR24][OF]
• Наличие водяных знаков: Нет
• Страна: Rune Grammofon
• Продолжительность: 00:41:33
• Источник: internet
• WEB релиз: ссылка
• Контейнер: FLAC (*.flac)
• Тип рипа: tracks
• Разрядность: 24/96
• Формат: PCM
• Количество каналов: 2.0
• Наличие сканов: front

Лог проверки качества
foobar2000 1.4.2 / Dynamic Range Meter 1.1.1
log date: 2021-03-14 21:45:22

--------------------------------------------------------------------------------
Analyzed: Kjetil Mulelid / Piano
--------------------------------------------------------------------------------

DR         Peak         RMS     Duration Track
--------------------------------------------------------------------------------
DR9       -0.30 dB   -14.24 dB      4:39 01-Beginning
DR10      -0.30 dB   -14.51 dB      4:10 02-Skjong
DR9       -0.30 dB   -13.77 dB      4:02 03-Dancers
DR9       -0.30 dB   -13.54 dB      4:09 04-Point of View
DR8       -0.30 dB   -13.25 dB      3:10 05-Le Petit
DR12      -0.30 dB   -16.85 dB      3:39 06-Love Story
DR11      -0.30 dB   -15.38 dB      3:14 07-For You I'll Do Anything
DR10      -0.30 dB   -15.41 dB      4:16 08-Sailor's Song
DR9       -0.30 dB   -13.13 dB      2:10 09-Blooming
DR8       -0.30 dB   -13.58 dB      4:27 10-Kanskje i Morgen
DR9       -0.30 dB   -13.30 dB      3:36 11-The Sun
--------------------------------------------------------------------------------

Number of tracks:  11
Official DR value: DR9

Samplerate:        96000 Hz
Channels:          2
Bits per sample:   24
Bitrate:           2506 kbps
Codec:             FLAC
================================================================================
No seeders - write personal message to M0p94ok. Any questions - support@pro-jazz.com.
Нет сидеров - пишите в личку M0p94ok. Есть вопросы - support@pro-jazz.com
18:54
82
Нет комментариев. Ваш будет первым!