Поиск

2021 Edi Nulz - Meganan {Galileo Music Communication} [24-48]

2021 Edi Nulz - Meganan {Galileo Music Communication} [24-48]
Место записи:
RecPublica Studio, Lubrza, Polen
Дата издания диска:
12 марта 2021
Битрейт аудио:
lossless
Доп. инфо:

• Формат записи | Источник записи: [TR24][OF]
• Наличие водяных знаков: Нет
• Год издания релиза: 2021
• Лейбл: Galileo Music Communication
• Продолжительность: 00:41:16
• Источник: internet
• WEB релиз: ссылка
• Контейнер: FLAC (*.flac)
• Тип рипа: tracks
• Разрядность: 24/48
• Формат: PCM
• Количество каналов: 2.0
• Наличие сканов: front

Лог проверки качества
foobar2000 1.4.2 / Dynamic Range Meter 1.1.1
log date: 2021-03-15 09:42:27

--------------------------------------------------------------------------------
Analyzed: Edi Nulz / Meganan
--------------------------------------------------------------------------------

DR         Peak         RMS     Duration Track
--------------------------------------------------------------------------------
DR6       -0.11 dB    -8.42 dB      5:15 01-Siksha
DR6       -0.11 dB    -7.53 dB      5:48 02-Gruseldäne
DR9       -0.11 dB   -10.85 dB      0:47 03-ВЎcor!
DR6       -0.11 dB    -8.15 dB      6:08 04-Aku
DR8       -0.11 dB   -10.07 dB      2:55 05-G. Suling
DR8       -0.11 dB   -10.72 dB      0:52 06-ВЎzoeng!
DR6       -0.11 dB    -8.49 dB      5:42 07-Mein Bester Freund
DR6       -0.11 dB    -7.48 dB      6:16 08-Meganan
DR13      -0.11 dB   -17.44 dB      1:05 09-ВЎdau!
DR6       -0.11 dB    -8.22 dB      6:28 10-Nase
--------------------------------------------------------------------------------

Number of tracks:  10
Official DR value: DR7

Samplerate:        48000 Hz
Channels:          2
Bits per sample:   24
Bitrate:           1587 kbps
Codec:             FLAC
================================================================================
No seeders - write personal message to M0p94ok. Any questions - support@pro-jazz.com.
Нет сидеров - пишите в личку M0p94ok. Есть вопросы - support@pro-jazz.com
19:19
90
Нет комментариев. Ваш будет первым!