Поиск

2021 Manuel Rocheman - Magic Lights {Bonsaï Music} [24-88.2]

2021 Manuel Rocheman - Magic Lights {Bonsaï Music} [24-88.2]
Стили:
Дата издания диска:
12 марта 2021
Номер по каталогу:
BON201201
Битрейт аудио:
lossless
Доп. инфо:

• Формат записи | Источник записи: [TR24][OF]
• Наличие водяных знаков: Нет
• Год издания релиза: 2021
• Лейбл: Bonsaï Music
• Продолжительность: 00:43:57
• Источник: internet
• WEB релиз: ссылка
• Контейнер: FLAC (*.flac)
• Тип рипа: tracks
• Разрядность: 24/88,2
• Формат: PCM
• Количество каналов: 2.0
• Наличие сканов: front + booklet

Лог проверки качества
foobar2000 1.4.2 / Dynamic Range Meter 1.1.1
log date: 2021-03-14 21:46:46

--------------------------------------------------------------------------------
Analyzed: Manuel Rocheman / Magic Lights
--------------------------------------------------------------------------------

DR         Peak         RMS     Duration Track
--------------------------------------------------------------------------------
DR10      -0.10 dB   -12.80 dB      4:34 01-Magic Lights
DR11      -0.10 dB   -13.25 dB      5:10 02-Harmonic Colors
DR9       -0.10 dB   -11.65 dB      3:44 03-Coral Feathers
DR13      -0.10 dB   -15.86 dB      5:09 04-Pupi's Lullaby
DR11      -0.10 dB   -12.47 dB      4:44 05-Linda's Song
DR10      -0.10 dB   -13.19 dB      3:58 06-Aire
DR9       -0.10 dB   -12.07 dB      3:39 07-Time
DR11      -0.10 dB   -13.81 dB      2:46 08-Secret Chant
DR11      -0.10 dB   -13.37 dB      6:12 09-Silent Memories
DR10      -0.10 dB   -11.53 dB      4:03 10-Dragon Hunter
--------------------------------------------------------------------------------

Number of tracks:  10
Official DR value: DR11

Samplerate:        88200 Hz
Channels:          2
Bits per sample:   24
Bitrate:           2820 kbps
Codec:             FLAC
================================================================================
No seeders - write personal message to M0p94ok. Any questions - support@pro-jazz.com.
Нет сидеров - пишите в личку M0p94ok. Есть вопросы - support@pro-jazz.com
21:30
89
Нет комментариев. Ваш будет первым!