Вы используете незарегистрированную версию компонента "Вкладки"!

Поиск

2021 Tom Ibarra - Luma {Goatzic} [24-48]

2021 Tom Ibarra - Luma {Goatzic} [24-48]
Дата издания диска:
28 января 2021
Номер по каталогу:
745125464305
Носитель:
WEB
Формат:
PCM
Тип рипа:
tracks
Контейнер:
FLAC (*.flac)
Количество каналов:
2.0
Разрядность/ЧД:
24/48
Битрейт аудио:
lossless
Время звучания:
00:42:47
Наличие сканов:
только обложка
Страна-производитель диска (релиза):
Australia
Лог проверки качества
foobar2000 1.6.2 / Dynamic Range Meter 1.1.1
log date: 2021-05-31 23:41:13

--------------------------------------------------------------------------------
Analyzed: Tom Ibarra / Luma
--------------------------------------------------------------------------------

DR         Peak         RMS     Duration Track
--------------------------------------------------------------------------------
DR6       -0.13 dB    -8.96 dB      4:28 01-Left Behind
DR7       -0.10 dB    -8.19 dB      3:56 02-Overcome
DR7       -0.10 dB   -11.14 dB      5:36 03-A Bright Spot in Hell
DR7       -0.10 dB   -10.82 dB      4:22 04-Fickle Heart
DR7       -0.14 dB   -11.38 dB      5:43 05-Luma
DR5       -0.10 dB    -9.89 dB      5:16 06-A Dream's Shadow
DR9       -0.10 dB   -14.09 dB      3:46 07-Before We Hit the Ground
DR6       -0.13 dB    -7.95 dB      5:19 08-Backlash
DR6       -0.10 dB    -8.39 dB      4:22 09-Home
--------------------------------------------------------------------------------

Number of tracks:  9
Official DR value: DR7

Samplerate:        48000 Hz
Channels:          2
Bits per sample:   24
Bitrate:           1630 kbps
Codec:             FLAC
================================================================================
Any questions - support@pro-jazz.com. Есть вопросы - support@pro-jazz.com
23:52
175
01:03