Поиск

2020 Tsuyoshi Yamamoto Trio - The Look Of Love {Venus} [DSD64 ISO]

2020 Tsuyoshi Yamamoto Trio - The Look Of Love {Venus} [DSD64 ISO]
Стили:
Дата записи диска:
16 ноября 2019
Место записи:
Jazz Is, Yokohama, Japan
Дата издания диска:
15 апреля 2020
Издатель (лейбл):
Номер по каталогу:
VHGD-355
Битрейт аудио:
lossless
Доп. инфо:

Формат записи/Источник записи: [SACD-R][OF]
Наличие водяных знаков: Нет
Год издания диска: 2020
Продолжительность: 00:54:49

Контейнер: ISO (*.iso)
Тип рипа: image
Разрядность: 64(2,8 MHz/1 Bit)
Формат: DSD
Количество каналов: 2.0

Доп. информация: venusrecords

Источник (релизер): jazzy pic

Лог проверки качества
foobar2000 1.6.4 / Dynamic Range Meter 1.1.1
log date: 2021-03-16 20:01:39

--------------------------------------------------------------------------------
Analyzed: Tsuyoshi Yamamoto Trio / The Look Of Love ~ Live at Jazz Is <1st set>
--------------------------------------------------------------------------------

DR         Peak         RMS     Duration Track
--------------------------------------------------------------------------------
DR7       -5.49 dB   -14.41 dB     12:06 01-Midnight Blues
DR6       -6.45 dB   -15.00 dB      6:18 02-Polka Dots And Moonbeams
DR6       -5.97 dB   -13.76 dB     10:06 03-The Look Of Love
DR8       -5.69 dB   -15.68 dB      5:48 04-Mack The Knife
DR8       -5.68 dB   -17.40 dB      6:20 05-My Foolish Heart
DR7       -5.89 dB   -14.55 dB      5:02 06-Satin Doll
DR8       -5.83 dB   -16.08 dB      5:56 07-Yago
DR7       -5.98 dB   -15.31 dB      3:13 08-Blues Of Love
--------------------------------------------------------------------------------

Number of tracks:  8
Official DR value: DR7

Samplerate:        2822400 Hz / PCM Samplerate: 88200 Hz
Channels:          2
Bits per sample:   1
Bitrate:           5645 kbps
Codec:             DSD64
================================================================================
No seeders - write personal message to M0p94ok. Any questions - support@pro-jazz.com.
Нет сидеров - пишите в личку M0p94ok. Есть вопросы - support@pro-jazz.com
12:01
120
Нет комментариев. Ваш будет первым!