Поиск

2016 Na Lengo - Ingoma {Ozella Music} [24-44.1]

2016 Na Lengo - Ingoma {Ozella Music} [24-44.1]
Место записи:
Ibiza, Spain
Дата издания диска:
18 марта 2016
Издатель (лейбл):
Номер по каталогу:
OZ062
Носитель:
WEB
Формат:
PCM
Тип рипа:
tracks
Контейнер:
FLAC (*.flac)
Количество каналов:
2.0
Разрядность/ЧД:
24/44,1
Битрейт аудио:
lossless
Время звучания:
00:41:42
Наличие сканов:
только обложка
Наличие водяных знаков:
да
Страна-производитель диска (релиза):
Germany
Релизёр (источник):
M0p94ok

Треклист:

01. Elimu  04:04
02. Njo Mbele  03:05
03. Lulu Wangu  03:11
04. Alua  02:52
05. Asante  04:28
06. Mbele Mbele  04:16
07. Mchochezi  03:49
08. Lala Salama  02:48
09. Ingoma  00:49
10. Mkuki  04:02
11. Mambo Ya Dunia  03:14
12. Tuliza  04:45

Лог проверки качества
foobar2000 1.6.2 / Dynamic Range Meter 1.1.1
log date: 2021-06-01 14:03:19

--------------------------------------------------------------------------------
Analyzed: Na Lengo / Ingoma
--------------------------------------------------------------------------------

DR         Peak         RMS     Duration Track
--------------------------------------------------------------------------------
DR9       -0.10 dB   -11.25 dB      4:05 01-Elimu
DR10      -0.10 dB   -11.46 dB      3:05 02-Njo Mbele
DR10      -0.11 dB   -11.65 dB      3:12 03-Lulu Wangu
DR10      -0.10 dB   -11.27 dB      2:53 04-Alua
DR9       -0.10 dB    -9.87 dB      4:29 05-Asante
DR10      -0.10 dB   -11.38 dB      4:17 06-Mbele Mbele
DR11      -0.10 dB   -13.21 dB      3:49 07-Mchochezi
DR10      -0.10 dB   -11.35 dB      2:49 08-Lala Salama
DR9       -0.10 dB   -11.15 dB      0:49 09-Ingoma
DR10      -0.10 dB   -10.94 dB      4:03 10-Mkuki
DR9       -0.10 dB   -11.04 dB      3:14 11-Mambo Ya Dunia
DR10      -0.10 dB   -11.58 dB      4:45 12-Tuliza
--------------------------------------------------------------------------------

Number of tracks:  12
Official DR value: DR10

Samplerate:        44100 Hz
Channels:          2
Bits per sample:   24
Bitrate:           1622 kbps
Codec:             FLAC
================================================================================
Приватный:
Да (DHT отключён)
Размер:
479.35 Мб (502,637,296 байт) » файлов: 15
Участники:
1 раздают, 0 качают (1 участников всего)
Внешние участники:
--- [ Обновить ]
No seeders - write personal message to M0p94ok. Any questions - support@pro-jazz.com.
Нет сидеров - пишите в личку M0p94ok. Есть вопросы - support@pro-jazz.com
18:33
39
Нет комментариев. Ваш будет первым!