Поиск

1962 Cannonball Adderley & Bill Evans - Know What I Mean? (2021) {Music Trax} [24-96]

1962 Cannonball Adderley & Bill Evans - Know What I Mean? (2021) {Music Trax} [24-96]
Дата записи диска:
27 января 1961 - 13 марта 1961
Место записи:
Bell Sound Studios, New York, NY
Битрейт аудио:
lossless

Треклист:

01 - Waltz For Debby 05:13
02 - Goodbye 06:15
03 - Who Cares? 05:56
04 - Venice 02:53
05 - Toy 05:07
06 - Elsa 05:50
07 - Nancy (With The Laughing Face) 04:06
08 - Know What I Mean? 04:52

Доп. инфо:

Формат записи/Источник записи: [TR24][OF]
Издание: Remastered
Год издания/переиздания диска: 1962/2021
Издатель (лейбл): Music Trax
Продолжительность: 00:39:54
Наличие сканов в содержимом раздачи: Нет

Контейнер: FLAC (*.flac)
Тип рипа: tracks
Разрядность: 24/96
Количество каналов: 2.0

Источник (релизер): bandcamp

Лог проверки качества
foobar2000 1.4.3 / Dynamic Range Meter 1.1.1
log date: 2021-03-16 13:47:20

--------------------------------------------------------------------------------
Analyzed: Cannonball Adderley & Bill Evans / Know What I Mean?
--------------------------------------------------------------------------------

DR         Peak         RMS     Duration Track
--------------------------------------------------------------------------------
DR11      -1.02 dB   -14.11 dB      5:13 01-Waltz For Debby
DR10      -1.01 dB   -14.97 dB      6:16 02-Goodbye
DR11      -1.02 dB   -13.97 dB      5:56 03-Who Cares?
DR10      -1.01 dB   -13.29 dB      2:53 04-Venice
DR11      -1.01 dB   -14.02 dB      5:08 05-Toy
DR10      -1.01 dB   -14.64 dB      5:50 06-Elsa
DR10      -1.01 dB   -14.43 dB      4:07 07-Nancy (With The Laughing Face)
DR10      -1.01 dB   -14.58 dB      4:53 08-Know What I Mean?
--------------------------------------------------------------------------------

Number of tracks:  8
Official DR value: DR10

Samplerate:        96000 Hz
Channels:          2
Bits per sample:   24
Bitrate:           2928 kbps
Codec:             FLAC
================================================================================
Приватный:
Нет (DHT включён)
Размер:
874.91 Мб (917,414,167 байт) » файлов: 13
Участники:
0 раздают, 0 качают (0 участников всего)
Внешние участники:
9 раздают, 3 качают (12 участников всего) [ Обновить ]
No seeders - write personal message to M0p94ok. Any questions - support@pro-jazz.com.
Нет сидеров - пишите в личку M0p94ok. Есть вопросы - support@pro-jazz.com
00:30
91
Нет комментариев. Ваш будет первым!